<?xml version="1.0" standalone="no"?>
<!DOCTYPE svg PUBLIC "-//W3C//DTD SVG 1.1//EN" "http://www.w3.org/Graphics/SVG/1.1/DTD/svg11.dtd" >
<svg xmlns="http://www.w3.org/2000/svg" xmlns:xlink="http://www.w3.org/1999/xlink" version="1.1">
<metadata>
Created by FontForge 20190801 at Mon Feb 22 00:34:46 1993
 By Jimmy Wärting
Copyright (c) 1986-1992 SWFTE International, Ltd. All rights reserved
</metadata>
<defs>
<font id="BrushScriptRegularSWFTE" horiz-adv-x="500" >
  <font-face 
    font-family="Brush Script"
    font-weight="400"
    font-stretch="normal"
    units-per-em="1000"
    panose-1="0 0 0 0 0 0 0 0 0 0"
    ascent="800"
    descent="-200"
    x-height="341"
    cap-height="682"
    bbox="-158 -324 1623 916"
    underline-thickness="70"
    underline-position="-185"
    unicode-range="U+0020-F002"
  />
<missing-glyph horiz-adv-x="676" 
d="M42 0v676h592v-676h-592zM592 42v592h-508v-592h508z" />
    <glyph glyph-name=".notdef" horiz-adv-x="676" 
d="M42 0v676h592v-676h-592zM592 42v592h-508v-592h508z" />
    <glyph glyph-name=".null" horiz-adv-x="0" 
 />
    <glyph glyph-name="nonmarkingreturn" horiz-adv-x="273" 
 />
    <glyph glyph-name="space" unicode=" " horiz-adv-x="273" 
 />
    <glyph glyph-name="exclam" unicode="!" horiz-adv-x="294" 
d="M152 216q6 -6 6 -10q0 -10 -13.5 -23.5t-21.5 -13.5t-29.5 22.5t-21.5 34.5q0 14 27 72q32 69 94 173q109 181 128 181l16 -4l31 -13q34 -14 34 -26q0 -7 -31 -52q-57 -84 -87 -129q-74 -112 -132 -212zM13 36q0 35 16 75.5t31 40.5q23 0 42 -18t19 -39q0 -44 -16 -78
t-34 -34q-23 0 -40.5 14t-17.5 39z" />
    <glyph glyph-name="quotedbl" unicode="&#x22;" horiz-adv-x="314" 
d="M42 701h80v-272h-80v272zM193 701h80v-272h-80v272z" />
    <glyph glyph-name="numbersign" unicode="#" horiz-adv-x="768" 
d="M359 713h93l-75 -213h122l76 213h93l-75 -213h142l-29 -84h-143l-44 -123h151l-30 -84h-150l-76 -212h-93l76 212h-123l-77 -212h-93l76 212h-146l30 84h145l44 123h-154l30 84h154zM346 416l-44 -124h125l44 124h-125z" />
    <glyph glyph-name="dollar" unicode="$" horiz-adv-x="567" 
d="M269 42l-16 -64q-6 -25 -13.5 -36t-20.5 -11q-14 0 -25 13t-11 31v16q3 12 4 18l7 31q-141 15 -141 63q0 23 12.5 50t33.5 42q30 -14 60 -22t61 -8h14l34 117h-21q-78 0 -110.5 16t-32.5 60q0 69 63 124q68 59 183 74q6 41 43 71q30 24 50 24q9 0 9 -10l-5 -16l-24 -67
q67 0 95 -10.5t28 -35.5q0 -55 -23 -76t-92 -21l36 33q-35 9 -65 9h-9l-29 -100q65 -13 100.5 -45.5t35.5 -77.5q0 -61 -60 -113q-64 -56 -171 -79zM341 277l-31 -104q51 14 78.5 32.5t27.5 36.5q0 35 -75 35zM294 368l25 84q-60 -9 -94 -26t-34 -33q0 -22 26 -23.5t77 -1.5
z" />
    <glyph glyph-name="percent" unicode="%" horiz-adv-x="567" 
d="M322 622h5q38 0 38 -46q0 -73 -66 -148.5t-121 -75.5q-38 0 -63.5 28.5t-25.5 73.5q0 79 70 149q65 65 123 65q19 0 30.5 -9.5t11.5 -26.5zM253 565l6 32q-48 -34 -76 -78q-24 -38 -24 -69q0 -19 18 -19q24 0 79 61t55 90q0 14 -12 14q-5 0 -18 -8t-28 -23zM68 -61
q-19 0 -32.5 24.5t-13.5 51.5q0 23 55 99q66 91 181 209q259 265 317 265q16 0 16 -17q0 -30 -27 -63q-6 -7 -56 -56q-95 -93 -141 -141q-86 -90 -149 -167q-79 -97 -150 -205zM482 208q32 -15 32 -52q0 -71 -59.5 -142.5t-117.5 -71.5q-35 0 -57.5 29.5t-22.5 79.5
q0 69 61 136t115 67q22 0 35.5 -12.5t13.5 -33.5zM461 200q-44 -10 -93 -71q-45 -57 -45 -88q0 -21 19 -21q27 0 73 64.5t46 115.5z" />
    <glyph glyph-name="ampersand" unicode="&#x26;" horiz-adv-x="586" 
d="M326 447q71 37 116 85q39 41 39 65q0 14 -21 14q-36 0 -77 -43q-48 -51 -57 -121zM290 170q-15 32 -27.5 65t-19.5 61q-60 -33 -99 -84q-33 -43 -33 -68q0 -27 37 -27q28 0 62.5 13.5t79.5 39.5zM357 53q-52 -38 -103 -59t-85 -21q-69 0 -116 64q-41 56 -41 111
q0 67 54.5 130.5t152.5 103.5l-2 31q0 103 92 179q79 65 153 65q43 0 72.5 -28.5t29.5 -66.5q0 -82 -224 -200q8 -30 19.5 -59.5t27.5 -61.5q43 23 81 58q29 26 58 53q14 0 14 -40q0 -36 -19 -75q-24 -50 -75 -93l30 -31l24 15q12 -11 12 -22q0 -18 -28 -63q-31 -50 -54 -50
q-29 0 -73 60z" />
    <glyph glyph-name="quotesingle" unicode="'" horiz-adv-x="163" 
d="M42 701h80v-272h-80v272z" />
    <glyph glyph-name="parenleft" unicode="(" horiz-adv-x="420" 
d="M263 74v-4q0 -34 -20.5 -58t-44.5 -24q-30 0 -48.5 35t-18.5 99q0 101 57 234q50 117 121.5 211.5t109.5 94.5q14 0 24.5 -9.5t10.5 -20.5q-29 -43 -57 -85q-64 -96 -105 -189q-58 -131 -58 -233q0 -63 10 -63q4 0 19 12z" />
    <glyph glyph-name="parenright" unicode=")" horiz-adv-x="420" 
d="M322 74q15 -12 19 -12q10 0 10 63q0 103 -57 232q-41 93 -105 189l-58 86q0 12 10 21t25 9q38 0 108.5 -93t121.5 -212q58 -136 58 -235q0 -63 -18.5 -98.5t-48.5 -35.5q-25 0 -45 23t-20 59v4z" />
    <glyph glyph-name="asterisk" unicode="*" horiz-adv-x="405" 
d="M292 516q-20 -51 -28.5 -65t-18.5 -14q-21 0 -21 18q0 7 1 11q9 28 19 66q-36 -12 -47 -15t-18 -3q-24 0 -24 21q0 10 16 19t66 22q-30 42 -38.5 55t-8.5 19q0 19 19 19q8 0 18.5 -9.5t47.5 -48.5q21 52 28.5 64.5t18.5 12.5q20 0 20 -20q0 -5 -3 -15q-10 -28 -20 -58
l76 12q20 0 20 -20q0 -14 -23.5 -21.5t-62.5 -17.5q27 -38 38 -56q8 -13 8 -19q0 -8 -6 -14.5t-14 -6.5t-18.5 10.5t-44.5 53.5z" />
    <glyph glyph-name="plus" unicode="+" horiz-adv-x="833" 
d="M375 596h83v-257h251v-81h-251v-258h-83v258h-251v81h251v257z" />
    <glyph glyph-name="comma" unicode="," horiz-adv-x="283" 
d="M10 -62q31 37 31 42l-12 6q-12 6 -12 20q0 29 34.5 61.5t72.5 32.5q16 0 16 -24q0 -21 -25 -57q-32 -46 -82 -81h-23z" />
    <glyph glyph-name="hyphen" unicode="-" horiz-adv-x="440" 
d="M44 184q7 10 11 16q15 20 30.5 32.5t45.5 21t70 8.5q22 0 48 -5t30 -5t18 2.5t21 2.5q23 0 40 -4.5t17 -10.5q0 -8 -63 -48q-20 -13 -52.5 -18.5t-66.5 -5.5q-24 0 -38.5 1t-26.5 2h-23.5h-14.5h-11q-35 0 -35 11z" />
    <glyph glyph-name="period" unicode="." horiz-adv-x="283" 
d="M16 3q0 27 38.5 62.5t63.5 35.5q23 0 23 -25t-32 -60q-35 -39 -66 -39q-27 0 -27 26z" />
    <glyph glyph-name="slash" unicode="/" horiz-adv-x="274" 
d="M-15 -69v10q0 67 37 190t115 301q95 218 139 218q20 0 20 -26q0 -25 -34 -110q-73 -182 -82 -208q-55 -152 -96 -315q5 -13 5 -23q0 -22 -16.5 -47t-35.5 -25q-11 0 -26.5 9.5t-25.5 25.5z" />
    <glyph glyph-name="zero" unicode="0" horiz-adv-x="567" 
d="M514 571q26 -20 34.5 -45t8.5 -67q0 -195 -133 -350q-122 -143 -250 -143q-52 0 -94 51q-46 57 -46 141q0 128 81 243q67 94 174 161q95 59 158 59q31 0 71 -34zM391 461l-6 26q-127 -87 -194.5 -185.5t-67.5 -187.5q0 -30 8.5 -42.5t30.5 -12.5q43 0 125.5 66.5
t141.5 154.5q69 103 69 189q0 42 -31 42q-13 0 -34.5 -13t-41.5 -37z" />
    <glyph glyph-name="one" unicode="1" horiz-adv-x="567" 
d="M382 508q-30 -11 -83 -32q-32 -13 -40 -13q-9 0 -9 13q0 29 41 56q53 35 107 58q44 19 58 19q15 0 24 -18t9 -46q0 -23 -10 -47.5t-57 -106.5l-114 -193q-30 -52 -54 -118q-20 -56 -20 -77l2 -27q0 -22 -16 -22q-14 0 -47 26q-40 32 -40 63q0 71 58 186q66 132 191 279z
" />
    <glyph glyph-name="two" unicode="2" horiz-adv-x="567" 
d="M91 83q108 12 187.5 25t151.5 26q15 0 15 -16q0 -30 -25 -70t-60 -54.5t-92 -22t-139 -7.5q-35 0 -53.5 5.5t-33.5 23.5q-8 11 -18 39.5t-10 47.5q0 95 228 226q36 21 132 69q71 36 92 53q34 28 34 62q0 21 -48 21q-51 0 -118.5 -20.5t-128.5 -61.5q40 0 64.5 -10.5
t24.5 -21.5q0 -13 -21 -13h-8q-25 0 -50 -6t-51 -12h-11q-13 0 -20.5 5t-7.5 24q0 100 83 163t227 63q38 0 57.5 -2.5t34.5 -22.5q31 -42 31 -124q0 -62 -37 -104q-31 -35 -124 -90q-72 -42 -143 -84q-87 -53 -163 -111z" />
    <glyph glyph-name="three" unicode="3" horiz-adv-x="567" 
d="M71 131q-19 -13 -19 -28q0 -36 69 -36q106 0 198 47q84 43 84 80q0 53 -155 53q-44 0 -69.5 -3.5t-42.5 -5.5q-21 0 -21 20q0 59 33 86q25 21 86 30q137 22 214.5 57.5t77.5 66.5q0 34 -85 34q-123 0 -211 -45l65 -35l-118 -7q-20 0 -33.5 14.5t-13.5 37.5q0 54 77 91.5
t197 37.5q189 0 189 -128q0 -77 -80.5 -120.5t-253.5 -64.5q112 0 167.5 -35.5t55.5 -104.5q0 -99 -124 -172q-101 -60 -229 -60q-157 0 -157 82q0 25 28.5 67t57.5 42z" />
    <glyph glyph-name="four" unicode="4" horiz-adv-x="567" 
d="M366 125q-11 -24 -16.5 -49t-5.5 -39q0 -5 4.5 -12.5t4.5 -12.5q0 -19 -36 -45t-60 -26q-26 0 -26 63q0 29 2 50.5t9 54.5l-105 -5h-35q-19 0 -25 4q-5 3 -16 24q-25 48 -25 85q0 46 59 119q68 85 183 162q191 128 260 128q11 0 22.5 -8.5t11.5 -21.5q0 -14 -15 -29
q9 -12 12 -19.5t3 -18.5q0 -27 -38 -92l-110 -184h67q34 -2 34 -24q0 -13 -12 -33t-36 -43q-15 -14 -58 -20zM290 236q45 75 97 146q56 76 137 166q-104 -39 -203.5 -120t-184.5 -199q5 -2 18 -4.5t30 -2.5q27 0 48 3t58 11z" />
    <glyph glyph-name="five" unicode="5" horiz-adv-x="567" 
d="M178 147l-87 -52q20 -7 39 -7q83 0 191 67t108 115q0 37 -74 37q-44 0 -90 -10q-46 -12 -92 -23q-18 0 -35 40.5t-17 78.5q0 17 28.5 59t83.5 98q47 47 66.5 60t48.5 13q10 0 54 -1.5t63 -1.5q55 0 126 6q-11 -36 -28 -65t-41 -55q-10 -11 -32.5 -13.5t-76.5 -2.5h-120
q-42 -44 -82 -102q35 12 72.5 18t64.5 6q64 0 103.5 -39.5t39.5 -105.5q0 -141 -125 -230q-116 -82 -276 -82q-50 0 -70.5 18t-20.5 67q0 48 47.5 79t104.5 31z" />
    <glyph glyph-name="six" unicode="6" horiz-adv-x="567" 
d="M253 357q34 18 60.5 27.5t52.5 9.5q54 0 86.5 -34.5t32.5 -92.5q0 -52 -23.5 -106.5t-68.5 -101.5t-95 -76q-45 -26 -75 -26q-55 0 -107 61q-56 66 -56 150q0 90 66.5 191t182.5 183q49 34 67 46q48 32 77 32h42q54 0 54 -12q0 -7 -41 -34q-59 -38 -107 -76
q-80 -63 -148 -141zM166 114q0 -59 25 -59q12 0 40 16q33 19 64 49q41 39 69 97q24 50 24 79q0 31 -24 31q-45 0 -131 -87q-30 -32 -39 -43q-28 -36 -28 -83z" />
    <glyph glyph-name="seven" unicode="7" horiz-adv-x="567" 
d="M160 -70q-47 20 -47 75q0 42 36 116q41 85 112 174q83 104 196 203q-30 3 -45 4t-46 1q-58 0 -92.5 -4t-55.5 -12q-11 -4 -38 -25q-21 -16 -34 -16q-22 0 -22 26q0 11 26 52q30 48 64 77q14 13 76.5 21.5t165.5 8.5h14q71 0 88 -15q23 -20 23 -100q-156 -155 -242 -292
q-73 -117 -73 -179q0 -23 8 -23q13 6 18 6q5 -6 5 -8q0 -28 -137 -90z" />
    <glyph glyph-name="eight" unicode="8" horiz-adv-x="567" 
d="M340 272q26 -30 40 -64t14 -80q0 -107 -88 -167q-66 -45 -134 -45q-46 0 -81.5 27.5t-35.5 68.5q0 73 171 247q-39 56 -58 97.5t-19 78.5q0 88 88 141q94 57 261 57q61 0 85 -5.5t24 -23.5q0 -27 -22 -64q-28 -47 -64 -47q5 -10 5 -16q0 -22 -186 -205zM269 198
q-135 -146 -135 -179q0 -9 11.5 -16t30.5 -7q45 0 84.5 36t39.5 85q0 39 -31 81zM300 330q93 86 187 164q-41 4 -60 4.5t-31 0.5q-69 0 -107 -22.5t-38 -58.5q0 -20 13 -41q10 -17 36 -47z" />
    <glyph glyph-name="nine" unicode="9" horiz-adv-x="567" 
d="M381 264q-61 -44 -118 -72q-46 -22 -64 -22q-39 0 -75 47q-48 63 -48 116q0 45 32.5 96t94 96t145.5 76q70 26 103 26t54.5 -23.5t30.5 -33.5q22 -26 22 -45q0 -22 -37 -54q-16 -14 -39 -28q-29 -18 -38 -18q-11 0 -11 12q0 5 16 19q23 21 40 41q-144 -31 -234 -98
q-80 -60 -80 -115q0 -16 8 -26t19 -10q19 0 62 20q54 25 113 68q11 8 80 64q33 27 49 27q20 0 37 -9t17 -20q0 -9 -25 -42l-267 -366q-29 -40 -62 -64q-28 -20 -45 -20q-12 0 -29 14l32 70q16 36 51 47z" />
    <glyph glyph-name="colon" unicode=":" horiz-adv-x="294" 
d="M17 2q0 27 38.5 62.5t63.5 35.5q23 0 23 -24q0 -25 -34 -62.5t-65 -37.5q-26 0 -26 26zM110 229q0 27 38.5 62.5t63.5 35.5q23 0 23 -24q0 -25 -33.5 -62.5t-64.5 -37.5q-27 0 -27 26z" />
    <glyph glyph-name="semicolon" unicode=";" horiz-adv-x="294" 
d="M110 228q0 27 38.5 62.5t63.5 35.5q23 0 23 -24q0 -25 -34 -62.5t-65 -37.5q-26 0 -26 26zM10 -62q31 37 31 42l-12 6q-12 6 -12 20q0 29 34.5 61.5t72.5 32.5q16 0 16 -24q0 -21 -25 -57q-32 -46 -82 -81h-23z" />
    <glyph glyph-name="less" unicode="&#x3c;" horiz-adv-x="833" 
d="M704 574v-90l-456 -186l456 -186v-89l-575 236v78z" />
    <glyph glyph-name="equal" unicode="=" horiz-adv-x="833" 
d="M124 440h585v-82h-585v82zM124 238h585v-81h-585v81z" />
    <glyph glyph-name="greater" unicode="&#x3e;" horiz-adv-x="833" 
d="M129 574l575 -237v-78l-575 -236v89l456 186l-456 186v90z" />
    <glyph glyph-name="question" unicode="?" horiz-adv-x="383" 
d="M91 -19q-17 0 -35.5 19.5t-18.5 42.5q0 27 25 67.5t37 40.5q9 0 28.5 -23t19.5 -41q0 -32 -20.5 -69t-35.5 -37zM155 537l31 -15q14 -7 14 -15q0 -9 -9 -9q-9 2 -15 3q-32 7 -53 9.5t-28.5 7t-7.5 18.5q0 60 51 97q57 41 162 41q60 0 92.5 -26.5t32.5 -76.5
q0 -62 -40 -129q-28 -48 -103 -133q-91 -105 -91 -119q3 -13 3 -25q0 -18 -20 -18q-14 0 -29 21q-18 25 -18 57q0 61 151 189l72 60q28 27 28 52q0 42 -81 42q-39 0 -74.5 -8t-67.5 -23z" />
    <glyph glyph-name="at" unicode="@" horiz-adv-x="1000" 
d="M602 345q-14 86 -90 86q-62 0 -106 -62t-44 -152q0 -100 85 -100q43 0 79 32t49 85zM425 56q-75 0 -114 42t-39 122q0 115 68 193.5t162 78.5q84 0 121 -69l27 52h75l-66 -264q-10 -41 -10 -46q0 -19 13 -30t34 -11q57 0 112 65q64 76 64 183q0 123 -90.5 200.5
t-239.5 77.5q-166 0 -283 -99q-131 -111 -131 -297q0 -153 102 -244t273 -91q81 0 158 23.5t142 69.5l33 -48q-147 -111 -329 -111q-218 0 -344 122q-115 111 -115 280q0 184 127 317q141 147 370 147q167 0 279 -83q128 -95 128 -263q0 -147 -93 -238q-82 -80 -184 -80
t-102 81q-52 -80 -148 -80z" />
    <glyph glyph-name="A" unicode="A" horiz-adv-x="715" 
d="M516 338l77 234q-76 -70 -136 -135q-46 -49 -95 -110q44 0 79 2.5t75 8.5zM266 204l-36 -46q-180 -226 -245 -226q-21 0 -21 18q0 33 49 90q55 64 111 81l68 84q-61 0 -84 7t-23 29q0 16 25.5 46.5t50 43t57 17.5t71.5 5q-12 -12 -33 -17.5t-40 -10.5h72q315 361 374 361
q13 0 22.5 -11.5t9.5 -30.5q0 -30 -19 -88l-67 -215q61 0 83.5 -4.5t22.5 -14.5q0 -12 -20.5 -40t-50.5 -53q-11 -10 -36.5 -13t-38.5 -4q-27 -87 -27 -111q0 -25 14 -25q28 0 148 100l1 -34q-151 -164 -221 -164q-54 0 -54 56q0 19 12 61q5 19 38 118q-42 -5 -83.5 -7
t-129.5 -2z" />
    <glyph glyph-name="B" unicode="B" horiz-adv-x="657" 
d="M270 278l-44 -52q-38 -45 -38 -75q0 -21 28 -38.5t73 -17.5q76 0 142.5 38.5t66.5 69.5q0 49 -228 75zM307 322q141 -12 219 -50t78 -86q0 -69 -119.5 -142.5t-228.5 -73.5q-82 0 -133.5 33.5t-51.5 83.5q0 55 48 124l55 80q-75 8 -75 42q0 30 159 55q64 71 111 106
q51 38 91 38q9 0 9 -9q0 -8 -12 -23l-82 -98q125 21 197 57.5t72 70.5q0 21 -25.5 35t-70.5 14q-127 0 -309 -66l39 -10l-148 -48l-35 -10t-30 -6q-22 0 -22 18q0 21 32.5 74t68.5 76q57 38 190 70q102 25 195 25q91 0 146 -36t55 -93q0 -85 -102.5 -145t-300.5 -83z" />
    <glyph glyph-name="C" unicode="C" horiz-adv-x="679" 
d="M655 263l6 -41q-126 -127 -243 -192t-210 -65q-89 0 -143 50t-54 134q0 90 68 193q73 110 209 211q111 83 203.5 125t156.5 42q42 0 65 -22t23 -60q0 -106 -147 -244q-71 -67 -139 -108q-55 -33 -77 -33q-19 0 -37.5 21.5t-18.5 44.5q0 56 172 156l4 -21q71 54 114 109
q37 47 37 69q0 20 -20 20q-24 0 -88 -36q-80 -45 -166 -120q-101 -87 -157 -180q-52 -87 -52 -155q0 -45 26 -70.5t75 -25.5q152 0 393 198z" />
    <glyph glyph-name="D" unicode="D" horiz-adv-x="750" 
d="M427 543v-7q0 -26 -28 -65q-11 -15 -39 -51q-65 -85 -115 -166q-69 -110 -69 -129q0 -25 70 -25q157 0 298 90q150 96 150 222q0 60 -68.5 95.5t-198.5 35.5zM269 481q-61 -9 -123 -28.5t-75 -19.5q-25 0 -25 23q0 35 14.5 76.5t41.5 61.5q56 42 147 68t199 26
q313 0 313 -260q0 -128 -99 -236q-88 -96 -227 -155q-130 -55 -245 -55q-58 0 -83.5 16.5t-25.5 56.5q0 125 302 486q-43 0 -96 -14t-117 -39l39 2q43 0 60 -9z" />
    <glyph glyph-name="E" unicode="E" horiz-adv-x="661" 
d="M596 168l3 -36q0 -123 -149 -195q-120 -58 -253 -58q-97 0 -148.5 38.5t-51.5 108.5q0 89 97 164q104 80 285 114q-274 0 -274 133q0 91 119 170q61 40 141.5 62t174.5 22q52 0 91 -7.5t51.5 -18.5t12.5 -40v-23q0 -32 -9 -43.5t-37 -25.5l-152 -73q-4 0 -6 3q-1 1 -1 2
q0 27 75 74l-43 1q-65 0 -131.5 -17t-123.5 -49.5t-57 -57.5q0 -42 188 -42q178 0 178 -32q0 -12 -12 -33t-32 -39q-13 -12 -44.5 -16.5t-52.5 -8.5q-167 -33 -261 -99q-70 -49 -70 -86q0 -40 102 -40q100 0 195 38q79 32 195 110z" />
    <glyph glyph-name="F" unicode="F" horiz-adv-x="660" 
d="M382 144q-36 -4 -78 -7t-73 -3q-40 0 -40 19q0 60 68 91t227 52q112 189 112 241q0 16 -27 16q-58 0 -152 -22q-114 -27 -254 -80l50 1h16q14 0 14 -10q0 -8 -29.5 -17t-55 -16.5t-59.5 -20.5q-26 -10 -35 -10q-28 0 -28 27q0 9 10.5 39.5t31.5 71.5q18 33 36.5 54.5
t38 31t77.5 27t92 25.5q173 42 288 42q62 0 85.5 -9.5t23.5 -40.5q0 -44 -35 -130q-40 -98 -113 -222h71q-24 -46 -43 -75q-13 -20 -22 -30.5t-33 -18.5q-16 -5 -62 -16q-118 -158 -221 -252q-89 -81 -126 -81q-22 0 -22 20q0 45 46 100q50 61 112 76q25 27 56 63
q21 24 53 64z" />
    <glyph glyph-name="G" unicode="G" horiz-adv-x="678" 
d="M438 212q-239 -210 -307 -210q-47 0 -77 42.5t-30 112.5q0 92 61.5 186t178.5 176q103 71 209 111q97 36 167 36q32 0 42 -12q14 -17 14 -76q0 -27 -93.5 -83.5t-103.5 -56.5q-9 0 -9 10q0 7 12 19l59 58q-61 -21 -134.5 -64t-140.5 -98q-84 -70 -132 -141
q-43 -63 -43 -105q0 -36 32 -36q42 0 250 173q23 19 125 110q42 37 57 37t35.5 -13.5t20.5 -25.5q0 -15 -43 -97q-50 -96 -141 -240q51 26 96 55q50 33 108 81l7 -38q-67 -65 -143 -123q-68 -50 -136 -101q-3 -3 -52 -65q-23 -29 -48 -55q-99 -103 -148 -103q-34 0 -34 40
q0 29 19 68.5t53 71.5q21 20 58 47.5t49 37.5q17 14 74 111q37 63 88 160z" />
    <glyph glyph-name="H" unicode="H" horiz-adv-x="768" 
d="M305 145q-45 -47 -83 -99q-52 -72 -62 -72q-17 0 -30.5 12.5t-13.5 31.5q0 21 77 122q-41 6 -53 9q-33 10 -33 35q0 19 18 43t37 30q20 2 47 6q46 7 120 24q241 240 241 275q0 12 -8.5 15t-32.5 3q-72 0 -156.5 -24.5t-181.5 -77.5l46 -1l-148 -71q-29 -14 -42 -14
q-27 0 -27 33q0 27 11 61.5t33 68.5q274 130 468 130q68 0 94.5 -19t26.5 -76q0 -39 -25 -82q-20 -35 -71 -90q-19 -21 -110 -116q44 6 73 8.5t65 2.5q234 297 254 297q12 0 12 -16q0 -50 -57 -125q-62 -81 -123 -162q105 -9 105 -32q0 -6 -16 -23q-63 -66 -88 -97
q-45 5 -79 5h-16q-53 -89 -53 -113l3 -25q0 -17 -29 -35t-53 -18q-28 0 -28 32q0 25 14 63q18 48 51 97q-40 0 -74 -4q-101 -12 -103 -12z" />
    <glyph glyph-name="I" unicode="I" horiz-adv-x="477" 
d="M296 70q2 -7 2 -19q0 -20 -27.5 -54.5t-44.5 -34.5q-13 0 -31.5 19.5t-18.5 30.5q0 17 48 88q83 123 120 186q45 76 60 104q31 56 44 92q17 47 17 88q-91 -22 -162 -75t-108 -125q33 12 45 12q18 0 18 -13q0 -9 -50 -44q-19 -16 -26 -21q-19 -15 -28 -15
q-21 0 -51.5 31.5t-30.5 53.5q0 21 21 63q26 53 65 93q66 68 159 113q82 39 133 39q43 0 68.5 -24.5t25.5 -70.5q0 -86 -62 -217t-186 -300z" />
    <glyph glyph-name="J" unicode="J" horiz-adv-x="496" 
d="M78 123q-29 0 -29 47q0 87 41 192.5t107 181t146 118.5q73 39 131 39q25 0 45 -20t20 -46q0 -60 -49 -179q-52 -127 -157 -309q100 47 155 47v-34q-38 -7 -85 -24.5t-102 -46.5q-278 -367 -331 -367q-15 0 -24.5 12t-9.5 34q0 66 75 155q83 99 223 178q97 174 153 300.5
t72 208.5q-41 -9 -85.5 -43.5t-93.5 -91.5q-90 -107 -111 -244q23 18 39 28q33 21 53 21q-143 -157 -183 -157z" />
    <glyph glyph-name="K" unicode="K" horiz-adv-x="732" 
d="M278 187q-98 -149 -102 -154q-48 -62 -88 -62q-21 0 -21 20q0 13 20 44.5t60 85.5l81 109q-12 20 -12 39q0 51 43 79q13 8 69 38l32 17q59 78 98 154q-47 -7 -108 -30q-51 -19 -127 -56q-4 -2 -88 -45q-66 -34 -88 -34q-24 0 -24 28q0 35 14.5 78t37.5 61q36 29 66 46
t40 17l2 -2q0 -5 -13 -17l-23 -20q116 46 203 70q74 20 114 20q28 0 52 -34q21 -30 21 -55q0 -16 -22 -48q-57 -83 -58 -84l257 135q83 44 99 44t16 -10q0 -22 -35.5 -64.5t-53.5 -42.5h-9q-22 0 -348 -173l-39 -58q193 -119 202 -125q85 -55 120 -93q40 -43 40 -87
q0 -50 -18 -50q-19 0 -170 103q-52 36 -118 77q-106 67 -122 79z" />
    <glyph glyph-name="L" unicode="L" horiz-adv-x="511" 
d="M-19 2q-41 -21 -59 -26t-40 -5q-40 0 -40 10q0 17 30.5 62t56.5 61q18 10 45.5 15.5t77.5 9.5q40 42 94 111q50 65 101 131q63 79 124 142q67 70 129 112q53 36 75 36q12 0 24.5 -16.5t12.5 -33.5q0 -40 -31 -106t-92 -161l12 -15q-40 -44 -79 -71q-35 -24 -53 -24
q-16 0 -16 25q0 69 77 168q23 31 34 45q30 41 37 71q-67 -55 -137 -139q-59 -74 -117 -147q-69 -85 -122 -133q86 -12 193 -48q89 -30 179 -60q-47 -53 -76 -76.5t-55 -23.5q-20 0 -189 44q-104 27 -196 42z" />
    <glyph glyph-name="M" unicode="M" horiz-adv-x="935" 
d="M910 150v-44q-74 -84 -153 -133q-66 -41 -104 -41q-35 0 -55 35t-20 98q0 61 53 157q58 106 170 231q-82 -67 -171 -162q-72 -78 -155 -180q-117 -145 -135 -145q-9 0 -20.5 32t-11.5 64q0 38 43 104l104 152q73 113 123 226q-75 -53 -151 -140q-70 -80 -156 -207
q-136 -201 -155 -201q-15 0 -30.5 30t-15.5 66q0 22 19 53q57 78 98 141q67 103 106 182q34 69 34 93q0 5 -4 9t-11 4q-17 0 -118 -59l-72 -42q-31 -17 -44 -17q-20 0 -20 21q0 33 10.5 70.5t28.5 62.5t44.5 44.5t33.5 19.5l5 -6q-2 -3 -3 -5q-5 -7 -11 -13l-34 -34
q54 28 112 52q78 32 102 32t43 -35.5t19 -65.5q0 -95 -119 -273q83 110 168 196q72 72 122 108q45 32 62 32q12 0 29 -19q22 -25 22 -55q0 -27 -37 -101q-40 -81 -115 -198q154 171 263 267q98 86 125 86q17 0 33.5 -32t16.5 -55q0 -15 -16 -37q-49 -59 -89 -110
q-171 -220 -171 -337q0 -22 5.5 -30.5t20.5 -8.5q22 0 67 27q57 34 115 91z" />
    <glyph glyph-name="N" unicode="N" horiz-adv-x="713" 
d="M704 180l1 -45q-82 -104 -171 -167q-76 -54 -117 -54q-27 0 -43.5 20.5t-16.5 52.5q0 57 36.5 137t110.5 188q23 34 77 107q39 53 50 78q-70 -45 -144 -112q-77 -71 -156 -163q-186 -217 -195 -217q-12 0 -36.5 23.5t-24.5 39.5q0 8 168 277q106 171 106 196q0 16 -22 16
q-14 0 -54 -14q-51 -18 -116 -49q-27 -13 -84 -42.5t-67 -29.5t-10 23q0 30 21 67.5t61 70.5q103 85 120 85l5 -4q0 -5 -12 -15l-43 -36q89 45 151.5 67.5t97.5 22.5q33 0 53.5 -16.5t20.5 -43.5q0 -45 -56 -145q-52 -93 -164 -257q111 128 220 231q92 87 153.5 129.5
t83.5 42.5q18 0 33 -24t15 -56q0 -61 -65 -153q-21 -29 -85 -114q-118 -156 -118 -216q0 -34 30 -34q45 0 186 133z" />
    <glyph glyph-name="O" unicode="O" horiz-adv-x="586" 
d="M478 524l27 2q87 0 87 -91q0 -88 -47 -190q-54 -117 -141 -190q-103 -86 -229 -86q-64 0 -110 62t-46 151q0 115 91 233q79 103 195 176q109 69 179 69q19 0 31 -8q8 -5 26 -26q35 -41 35 -60q0 -8 -35 -18t-63 -24zM214 283l-1 39q-47 -50 -77 -125q-26 -65 -26 -110
q0 -25 11.5 -38.5t33.5 -13.5q45 0 108 39q71 44 135 123q56 70 89 140q28 60 28 96q0 43 -37 43q-50 0 -122 -46q-88 -56 -142 -147z" />
    <glyph glyph-name="P" unicode="P" horiz-adv-x="696" 
d="M281 275q25 -4 44 -6t42 -2q126 0 224 75q87 66 87 129q0 36 -57 59.5t-163 23.5q-4 -33 -33 -72l-99 -139l25 2q26 0 39 -1t24 -7q-14 -7 -42 -13.5t-66 -10.5zM200 155l-50 -83q7 -7 7 -13q0 -15 -30 -62q-40 -63 -67 -63q-25 0 -25 34q0 20 21 70q26 63 75 138
q-41 30 -41 58q0 36 38 63.5t105 37.5q29 42 70 95q49 62 104 125q-104 0 -196 -22l-152 -50q-5 0 -5 13q0 22 71 123q10 15 19.5 23t29.5 15q58 20 131.5 32.5t138.5 12.5q145 0 221.5 -57t76.5 -167q0 -165 -146 -257q-124 -78 -299 -78q-47 0 -97 12z" />
    <glyph glyph-name="Q" unicode="Q" horiz-adv-x="678" 
d="M273 151q77 -16 140 -24.5t120 -8.5q33 0 50.5 3.5t33.5 8.5q13 0 13 -14q0 -6 -9 -32q-20 -58 -40.5 -83t-98.5 -25t-170.5 14t-191.5 29q-26 0 -66 -20q-20 -10 -29 -10q-16 0 -16 22q0 28 18 66.5t37.5 52.5t104.5 26q437 300 437 419q0 16 -27 16q-49 0 -134 -35
q-107 -44 -215 -123q33 4 63 4q23 0 23 -12q0 -9 -19.5 -15t-42.5 -13q-32 -12 -81 -33q-32 -14 -41 -14q-15 0 -24.5 33t-9.5 84q0 30 73 90.5t183 100t199 39.5q58 0 97 -37t39 -84q0 -162 -416 -425z" />
    <glyph glyph-name="R" unicode="R" horiz-adv-x="733" 
d="M332 353q192 40 303 92q101 47 101 82q0 41 -167 41q-32 -3 -60 -5t-62 -2q0 -45 -50 -117q-41 -57 -65 -91zM218 180q-13 -23 -54 -82q-25 -37 -31 -54q-9 -27 -35 -48q-22 -18 -33 -18q-20 0 -20 23q0 17 26 69q31 62 84 140q-45 20 -45 35q0 12 17 35q43 57 118 57
l153 219q-112 -17 -210 -50l65 -6q14 -1 14 -5q0 -9 -43 -16t-113 -7q-40 0 -40 23q0 27 21 70.5t48 62.5q11 7 30.5 15t51.5 17q154 44 294 44q287 0 287 -148q0 -126 -128 -188q-115 -56 -389 -86l-8 -14q147 -48 254 -92q85 -35 109.5 -50.5t31 -37.5t6.5 -78
q0 -39 -20 -39q-6 0 -56 24l-146 72q-123 59 -239 113z" />
    <glyph glyph-name="S" unicode="S" horiz-adv-x="657" 
d="M81 124q56 -6 95 -6q103 0 211 29q117 32 117 67q0 39 -204 88q-101 24 -139 45q-44 25 -44 67q0 135 119 208q113 69 310 69q72 0 114.5 -13.5t42.5 -33.5q0 -76 -51 -105q-3 -2 -41 -18q-26 -11 -62 -31q-9 -5 -27 -17q-10 -7 -16 -7q-13 0 -13 12q0 14 74 68l-37 1
q-128 0 -228 -43q-88 -38 -88 -71q0 -17 25 -28q83 -24 161 -49q94 -30 146 -73t52 -85q0 -115 -142 -176q-122 -53 -303 -53q-83 0 -132 21t-49 47q0 13 21 51q14 25 25.5 37.5t37 21.5t63.5 9q-13 -20 -38 -32z" />
    <glyph glyph-name="T" unicode="T" horiz-adv-x="568" 
d="M401 98q15 -2 15 -16q0 -22 -40 -82q-45 -67 -77 -67q-15 0 -29 16t-14 36q0 31 31 101q37 83 107 191q84 129 198 264h-10q-277 0 -472 -80l62 -16q13 -3 13 -11q0 -12 -59 -12q-69 0 -87 6.5t-18 31.5q0 41 20 95t42 71t114 40q126 31 263 31q143 0 167 -27
q14 -14 27 -49.5t13 -54.5q0 -30 -42 -93q-51 -75 -101 -149q-73 -114 -123 -226z" />
    <glyph glyph-name="U" unicode="U" horiz-adv-x="806" 
d="M644 390q-356 -409 -425 -409q-28 0 -52 29q-27 32 -27 74q0 51 38 117q31 55 105 149q41 51 83 105t61 89q-66 -25 -147 -70q-56 -32 -110.5 -61.5t-83.5 -29.5q-15 0 -23.5 7.5t-8.5 18.5q0 16 29 79q33 73 87 109q61 42 155 70q55 17 102 25t63 8q32 0 45.5 -16.5
t13.5 -53.5q0 -64 -34 -120q-3 -5 -84 -115q-156 -212 -156 -257q0 -8 6 -8q39 0 293 272q15 16 162 182q58 65 76 65q13 0 24.5 -20t11.5 -52q0 -28 -116 -205q-130 -199 -130 -268q0 -38 31 -38q22 0 65.5 28t101.5 83l2 -45q-54 -72 -126 -119q-65 -42 -108 -42
q-34 0 -54 24t-20 69q0 54 39 136q35 74 111 190z" />
    <glyph glyph-name="V" unicode="V" horiz-adv-x="567" 
d="M105 395l50 6l34 2q17 0 17 -8q0 -7 -19 -12q-32 -9 -63 -17q-39 -12 -64 -22t-49 -19q-15 0 -15 32q0 63 14.5 99t64.5 74q43 34 94.5 63.5t116.5 56.5q124 52 160 52q25 0 46.5 -28.5t21.5 -55.5q0 -12 -31 -60q-57 -89 -84 -134q-146 -244 -146 -309q0 -32 26 -54
q83 62 276 373l-2 14q0 18 10.5 42t32.5 57q42 63 70 63q23 0 23 -33q0 -27 -20 -69t-65 -115q-36 -59 -104 -162q-182 -277 -240 -277q-24 0 -57 37q-42 46 -42 107q0 49 25 113t75 153q41 71 118 193q-87 -38 -157 -79t-117 -83z" />
    <glyph glyph-name="W" unicode="W" horiz-adv-x="862" 
d="M542 355q-125 -171 -230 -270q-90 -85 -127 -85q-19 0 -43.5 43.5t-24.5 79.5q0 58 108 185q2 3 132 144q54 59 54 81q0 23 -27 23q-51 0 -171 -57q-22 -10 -98 -53q-41 -23 -59 -23t-18 24q0 31 16 78.5t30.5 63t47.5 34.5q41 24 88 39l-8 -19q53 21 95 31.5t81 10.5
q62 0 87.5 -24.5t25.5 -90.5q0 -48 -31.5 -103t-97.5 -130q-87 -100 -111 -137.5t-33 -74.5q48 30 123.5 105.5t183.5 201.5q162 189 198 189q12 0 24 -20t12 -41q0 -14 -16 -42q-52 -78 -93 -141q-65 -99 -95 -162q-33 -69 -33 -110q177 92 308 364q-5 30 -5 44
q0 33 77 100q21 -33 21 -61q0 -37 -31 -122q-41 -113 -111 -221.5t-143 -167.5q-64 -52 -108 -52q-25 0 -55 29q-34 33 -34 70q0 67 24 133q20 55 67 134z" />
    <glyph glyph-name="X" unicode="X" horiz-adv-x="714" 
d="M412 250q-247 -275 -297 -275q-23 0 -23 28q0 33 39 86q47 64 114 91l176 193q4 29 7 91t3 125q-80 -20 -147 -50t-120 -67l52 5q22 0 22 -8t-15 -12.5t-28 -7.5q-31 -9 -72 -25q-28 -11 -35 -11q-13 0 -13 15q0 35 20 82q24 56 62 89q49 43 149 76q60 20 111.5 30
t78.5 10q34 0 46 -17.5t12 -61.5q0 -55 -10 -145l142 141q19 19 30.5 28t19.5 9q19 0 19 -24q0 -19 -16 -49t-45 -57l-16 1l-146 -154q-16 -156 -16 -269q0 -36 20 -36q16 0 47.5 19t64.5 40q11 0 11 -15q0 -23 -48.5 -65.5t-62.5 -53.5q-49 -39 -82 -39t-45.5 25t-12.5 78z
" />
    <glyph glyph-name="Y" unicode="Y" horiz-adv-x="733" 
d="M571 328q-97 -102 -190 -185q-75 -66 -134 -107q-51 -35 -66 -35q-25 0 -45 21t-20 46q0 31 36 98q42 79 120 173q64 75 87 103q62 74 62 98q-3 4 -5 4q-25 0 -200 -104q-125 -74 -156 -74q-8 0 -8 16q0 31 17 79t39.5 68t57 42.5t84.5 48.5q71 37 127.5 55.5t104.5 18.5
q73 0 73 -48q0 -33 -34 -90.5t-96 -137.5q-155 -197 -155 -227q0 -11 8 -11q62 0 238 185q165 173 190 173q12 0 29 -26.5t17 -42.5q0 -13 -42 -73q-74 -105 -108 -157q-82 -125 -149 -255q65 47 126 72q46 19 69 19q18 0 18 -12q0 -15 -27 -40q-83 -68 -149 -125
q-52 -46 -130 -127q-46 -48 -63 -48q-19 0 -31.5 13.5t-12.5 36.5q0 62 79 199t239 356z" />
    <glyph glyph-name="Z" unicode="Z" horiz-adv-x="642" 
d="M461 89q-109 -73 -186 -150q-72 -71 -111 -139q204 78 297 289zM636 220v-34l-76 -42q-14 -126 -152 -269q-70 -72 -156 -120q-70 -39 -102 -39q-19 0 -45.5 24.5t-26.5 46.5q0 34 40 88q48 65 127 128q93 74 224 140l3 17q0 21 -13 34t-34 13q-52 0 -163 -62
q-48 -28 -96 -55q-19 -10 -29 -10t-10 20q0 17 9.5 48t24.5 56q12 19 29 33q10 8 39 25q134 77 180 105q78 48 110 77q38 34 38 62q0 24 -33 24q-29 0 -91 -22q-74 -27 -160 -75q-103 -59 -199 -139l-1 37q0 72 16.5 121.5t54.5 84.5q44 41 146 91q68 33 122.5 49.5
t97.5 16.5q72 0 115 -40q40 -37 40 -99q0 -59 -57 -120q-61 -65 -174 -118q54 -7 86.5 -39.5t39.5 -86.5z" />
    <glyph glyph-name="bracketleft" unicode="[" horiz-adv-x="420" 
d="M37 -145l64 1q22 0 22 -12q0 -30 -26 -39q-17 -6 -71 -6q-47 0 -63.5 6t-16.5 25q0 9 37 100q68 168 102 256q79 205 154 421q-5 7 -5 11q0 9 6.5 21t15.5 12q20 -1 61 -3t82 -2h23q-4 -34 -14.5 -43.5t-41.5 -9.5h-13h-45q-27 -122 -94 -305t-177 -433z" />
    <glyph glyph-name="backslash" unicode="\" horiz-adv-x="274" 
d="M97 -14v41q0 87 -15.5 224.5t-32.5 252.5l-18 118q0 49 23 49q37 0 70 -141q26 -112 47 -275.5t21 -241.5q0 -26 -3 -49t-9 -58q-9 -10 -23.5 -16.5t-27.5 -6.5q-18 0 -30.5 22.5t-12.5 47.5q0 16 11 33z" />
    <glyph glyph-name="bracketright" unicode="]" horiz-adv-x="420" 
d="M334 601l-65 -1q-22 0 -22 12q0 30 21.5 37.5t75.5 7.5q46 0 63.5 -6t17.5 -25q0 -10 -37 -101q-75 -184 -103 -256q-78 -200 -154 -420q6 -8 6 -11q0 -8 -7.5 -20.5t-15.5 -12.5q-18 1 -60 3t-83 2h-23q4 34 14.5 43.5t41.5 9.5h13h45q26 116 94.5 303.5t177.5 434.5z
" />
    <glyph glyph-name="asciicircum" unicode="^" horiz-adv-x="1000" 
d="M447 713h106l242 -274h-101l-194 194l-195 -194h-101z" />
    <glyph glyph-name="underscore" unicode="_" 
d="M0 -152h500v-84h-500v84z" />
    <glyph glyph-name="grave" unicode="`" 
d="M358 441q0 -7 -10 -7q-22 0 -33 7q-5 3 -21 18q-30 27 -51 60q-17 26 -17 36q0 8 21 8q25 0 29 -1q9 -2 13 -10q19 -37 47 -76q22 -31 22 -35z" />
    <glyph glyph-name="a" unicode="a" horiz-adv-x="452" 
d="M298 310q-255 -109 -255 -194q0 -27 17 -27q23 0 84 53q73 63 154 168zM218 137q-131 -138 -173 -138q-19 0 -48 47q-32 52 -32 96q0 67 98 148q58 49 148 86q79 33 118 33q18 0 33 -18t15 -33q0 -8 -18 -18l-18 -11l17 -35q6 -12 6 -19q0 -11 -38.5 -66.5t-38.5 -86.5
q0 -24 29 -24q39 0 143 98l1 -43q-161 -175 -212 -175q-23 0 -38.5 16.5t-15.5 43.5q0 19 10 54q3 10 14 45z" />
    <glyph glyph-name="b" unicode="b" horiz-adv-x="373" 
d="M220 87q-50 -55 -92 -84t-72 -29q-38 0 -60.5 44t-22.5 119q0 93 58 201.5t172 222.5q142 142 189 142q21 0 21 -38q0 -62 -86 -184q-94 -134 -268 -301l-2 -42q0 -36 7.5 -51.5t25.5 -15.5q29 0 70 54q-11 19 -11 43q0 44 51.5 99.5t84.5 55.5q19 0 19 -29t-11.5 -65
t-35.5 -77q11 -11 27 -11q18 0 41 14.5t55 41.5l1 -42q-40 -36 -76 -55t-59 -19q-12 0 -26 6zM93 278q105 114 158 185q68 90 93 162q-190 -196 -251 -347z" />
    <glyph glyph-name="c" unicode="c" horiz-adv-x="323" 
d="M329 195l1 -44q-155 -176 -242 -176q-42 0 -76 47t-34 111q0 95 96 175q43 37 91 58.5t74 21.5q46 0 46 -41q0 -39 -38 -86.5t-61 -47.5q-21 0 -21 34q-81 -49 -115 -100v-10q0 -68 61 -68q44 0 98 32t120 94z" />
    <glyph glyph-name="d" unicode="d" horiz-adv-x="458" 
d="M263 284q-110 -41 -155 -76q-52 -41 -52 -100q0 -15 7 -15q25 0 143 107q21 19 29 29q18 22 28 55zM218 147q-141 -146 -171 -146q-19 0 -39 43q-23 50 -23 117q0 69 91 133q52 36 98 56t72 20q28 0 44 -23q156 268 184 268q12 0 23.5 -13t11.5 -32q0 -38 -146 -247
q-32 -46 -52.5 -113.5t-20.5 -108.5q0 -9 6.5 -16.5t13.5 -7.5q19 0 155 118v-43q-156 -175 -209 -175q-46 0 -46 79q0 29 1 44t7 47z" />
    <glyph glyph-name="e" unicode="e" horiz-adv-x="322" 
d="M58 191q170 77 170 127q0 11 -7 11q-26 0 -71 -32q-58 -41 -92 -106zM54 148v-5q0 -34 17.5 -53.5t47.5 -19.5q37 0 89 30q58 33 121 95v-44q-150 -167 -257 -167q-54 0 -83.5 34.5t-29.5 99.5q0 95 87.5 180.5t187.5 85.5q71 0 71 -44q0 -48 -65 -103q-73 -62 -186 -89z
" />
    <glyph glyph-name="f" unicode="f" horiz-adv-x="325" 
d="M43 22q-51 -89 -51 -165q0 -30 12 -65q36 13 67 71t31 117l-1 24q-32 7 -58 18zM184 20l1 -19q0 -105 -93 -209q-83 -92 -134 -92q-21 0 -37 35.5t-16 90.5q0 47 20 105.5t64 133.5q-23 24 -23 56q0 78 65 78l22 -1q19 26 36 54q24 41 37 63q142 306 204 306q20 0 20 -37
q0 -60 -32 -123q-23 -45 -79 -120q-32 -44 -64.5 -89.5t-66.5 -103.5q35 -32 58 -76q88 49 165 123l-1 -45q-41 -50 -76.5 -81.5t-69.5 -48.5z" />
    <glyph glyph-name="g" unicode="g" horiz-adv-x="436" 
d="M240 139q-56 -66 -118 -107q-50 -33 -73 -33q-30 0 -52 40t-22 96q0 37 23 76.5t66 73.5q137 107 203 107q23 0 40 -9t17 -20q0 -34 -129 -99q-78 -39 -110 -69q-41 -38 -41 -85q0 -12 8 -17t15 -5q50 0 148 111q38 45 77 91q31 34 48 34q11 0 19 -15t8 -36q0 -17 -8 -38
q-3 -7 -22 -48l-60 -124q42 30 72 53q48 37 93 79v-45q-40 -40 -128 -113q-52 -43 -91 -77q-47 -89 -104 -155q-83 -97 -122 -97q-24 0 -24 28q0 39 46 103q54 74 151 154q14 20 32.5 57t37.5 89z" />
    <glyph glyph-name="h" unicode="h" horiz-adv-x="411" 
d="M417 194l1 -43q-150 -171 -221 -171q-22 0 -35.5 17.5t-13.5 46.5q0 30 23 75q19 37 66 108q-49 -43 -173 -187q-34 -39 -52 -39q-33 0 -33 117q0 26 2.5 46.5t10.5 42.5q23 66 130 213q195 267 254 267q14 0 27 -10t13 -18q0 -15 -37 -73q-45 -70 -118 -165
q-84 -109 -207 -248l-6 -50q202 218 260 218q13 0 30.5 -18.5t17.5 -32.5q0 -11 -33 -53q-79 -103 -79 -131q0 -21 21 -21q42 0 152 109z" />
    <glyph glyph-name="i" unicode="i" horiz-adv-x="255" 
d="M163 425q0 33 26.5 61.5t55.5 28.5q31 0 31 -33q0 -28 -26 -59.5t-53 -31.5q-15 0 -24.5 9.5t-9.5 24.5zM262 195l1 -44q-131 -162 -209 -162q-41 0 -64.5 34.5t-23.5 97.5q0 56 23 102t73 95.5t91 49.5q33 0 33 -28t-32 -72.5t-99 -101.5q-5 -20 -5 -33q0 -48 48 -48
q24 0 64.5 26.5t99.5 83.5z" />
    <glyph glyph-name="j" unicode="j" horiz-adv-x="328" 
d="M223 414q0 14 6.5 28.5t22 40.5t28 36t33.5 10q35 0 35 -35q0 -29 -23 -67q-26 -42 -53 -42q-49 0 -49 29zM334 196v-46q-42 -39 -113 -100q-77 -67 -90 -78q-40 -36 -62 -64q-115 -195 -156 -195q-23 0 -23 39q0 26 13.5 59t38 63.5t71.5 76.5q18 18 27 30q19 27 61 108
q38 75 70 149q-58 -13 -119 -38q-55 -22 -65 -22q-12 0 -12 13q0 18 14.5 52.5t32.5 43.5q68 33 140 56q56 18 72 18q18 0 28 -9t10 -24q0 -29 -20 -71q-10 -22 -28 -54l-93 -173q47 32 98 74q37 31 105 92z" />
    <glyph glyph-name="k" unicode="k" horiz-adv-x="421" 
d="M126 153l44 -8q118 95 118 127q0 2 -2 4q-2 0 -3 1q-14 0 -54 -29q-48 -35 -103 -95zM89 104q-21 -25 -49 -61q-34 -44 -46 -44q-27 0 -27 107q0 77 41 158q37 74 125 181q181 221 242 221q9 0 15.5 -7.5t6.5 -17.5q0 -74 -362 -474l-6 -35q107 117 190 181q74 58 106 58
q18 0 33 -19t15 -45q0 -57 -72 -118q-14 -12 -108 -82q31 -46 51 -46q22 0 67 33t116 104l1 -44q-78 -90 -131.5 -133.5t-87.5 -43.5t-61 30t-59 97z" />
    <glyph glyph-name="l" unicode="l" horiz-adv-x="270" 
d="M86 263q64 52 109.5 124.5t72.5 164.5q-131 -141 -182 -289zM276 195l1 -43q-162 -172 -212 -172q-41 0 -69 44t-28 104q0 65 43 161q48 107 134 211q115 139 165 139q20 0 20 -35q0 -100 -66 -208q-69 -113 -198 -210v-20q0 -92 50 -92q30 0 160 121z" />
    <glyph glyph-name="m" unicode="m" horiz-adv-x="606" 
d="M614 195l-1 -44q-157 -174 -216 -174q-60 0 -60 53q0 32 24.5 81.5t75.5 116.5q-65 -54 -124 -119q-38 -43 -76 -85q-31 -32 -50 -32q-41 0 -41 42q0 29 31 87q25 47 85 141q-71 -58 -130 -130q-37 -49 -74 -97q-29 -38 -47 -38q-50 0 -50 119q0 38 8 61q5 15 27 48
q35 53 58.5 77t44.5 24q51 0 51 -22q0 -13 -16 -35q-51 -61 -93 -112l-2 -33q94 95 126 126q56 54 92.5 80t59.5 26q35 0 35 -37q0 -20 -13 -47t-77 -130q208 198 240 198q6 0 16 -13q22 -28 22 -51q0 -13 -17 -34.5t-26 -32.5q-57 -69 -57 -99q0 -9 7.5 -15.5t16.5 -6.5
q19 0 57 28q32 24 93 79z" />
    <glyph glyph-name="n" unicode="n" horiz-adv-x="402" 
d="M-35 156q77 171 143 171q20 0 34.5 -6.5t14.5 -15.5q0 -19 -86 -116q-26 -29 -26 -59q97 109 183 176q71 55 97 55q12 0 22 -19t10 -43q0 -22 -19 -44.5t-39 -44.5q-19 -25 -33 -51q-20 -37 -20 -51q0 -21 20 -21q13 0 48 27t95 83l1 -45q-161 -175 -214 -175
q-24 0 -38.5 18.5t-14.5 49.5q0 59 88 180q-54 -50 -168 -187q-31 -37 -46 -37q-23 0 -38 34.5t-15 93.5z" />
    <glyph glyph-name="o" unicode="o" horiz-adv-x="359" 
d="M148 100l-2 31q0 53 50 145q-73 -30 -119 -85q-41 -49 -41 -89q0 -39 39 -39q36 0 73 37zM198 55q-65 -71 -129 -71q-44 0 -75 38t-31 101q0 42 23 89t66 87q36 34 76.5 52.5t73.5 18.5q29 0 49.5 -11.5t20.5 -23.5q0 -2 -6 -9t-12 -15q32 0 32 -47q0 -70 -54 -157
q23 0 55.5 23t80.5 70l-1 -50q-48 -48 -83.5 -72t-64.5 -24z" />
    <glyph glyph-name="p" unicode="p" horiz-adv-x="458" 
d="M106 84q12 1 25 3t18 2q13 0 31 -5q98 110 98 142q0 15 -7 15q-22 0 -63 -35q-53 -45 -102 -122zM51 -6q-98 -240 -131 -240q-24 0 -24 40q0 59 19.5 110t60.5 107l24 34q19 30 36 63l77 151q-16 -19 -42.5 -46.5t-76.5 -75.5v47q63 59 131 151q30 42 61 84q49 64 95 64
q32 0 32 -20q0 -16 -31 -55q-50 -62 -73 -102l-53 -91q63 61 122 97q50 30 73 30q36 0 36 -40q0 -47 -35 -105q-38 -62 -111 -129l24 -5q39 0 87 35q40 29 112 100l1 -48q-84 -89 -151.5 -135t-110.5 -46q-27 0 -46 5.5t-36 18.5q-19 -5 -37 -5q-15 0 -33 6z" />
    <glyph glyph-name="q" unicode="q" horiz-adv-x="438" 
d="M198 2q-52 -74 -78 -120q-30 -52 -38 -82q72 42 111 94.5t39 97.5zM313 301q-149 -48 -211 -92q-68 -49 -68 -116q0 -6 6 -6q30 0 100 50q85 61 173 164zM218 122q-136 -120 -170 -120q-33 0 -56 28.5t-23 78.5q0 56 25 98.5t86 88.5q50 37 121 60.5t130 23.5
q38 0 38 -45q0 -7 -8 -18q16 -24 16 -37q0 -26 -123 -195q6 -2 25 -9q10 -4 15 -4q19 0 151 124l1 -44q-38 -42 -66 -69q-36 -34 -74 -60l1 -9q0 -31 -25 -78.5t-70 -99.5q-55 -61 -107 -99q-47 -34 -67 -34q-19 0 -30.5 19t-11.5 45t25 72.5t76 117.5q41 58 121 165z" />
    <glyph glyph-name="r" unicode="r" horiz-adv-x="348" 
d="M-38 107l-14 34l68 66q-24 15 -24 35q0 41 47 91t79 50q13 0 13 -13q0 -6 -12 -29l118 7q51 0 51 -66q0 -11 -15 -25q-32 -31 -34 -33q-30 -32 -47.5 -64.5t-17.5 -50.5q0 -30 26 -30q27 0 155 117v-44q-77 -85 -130.5 -128.5t-83.5 -43.5q-26 0 -45 22t-19 56
q0 45 26 90q22 39 76 94q-29 -7 -52.5 -11.5t-48.5 -7.5l-66 -70q-29 -29 -50 -46z" />
    <glyph glyph-name="s" unicode="s" horiz-adv-x="344" 
d="M3 146l9 1q39 0 75 -59q35 24 50.5 49t15.5 61q0 30 -13 80q-27 -29 -65 -65q-48 -44 -72 -67zM351 194l1 -43q-163 -172 -258 -172q-49 0 -93 38t-44 79q0 34 35 48v38q119 119 152 160q7 35 23 49.5t49 14.5q18 0 18 -16l-2 -18q0 -7 9.5 -46t9.5 -69q0 -61 -40 -117
t-95 -72q20 -5 31 -5q66 0 204 131z" />
    <glyph glyph-name="t" unicode="t" horiz-adv-x="287" 
d="M18 156l-31 -22l-1 42q73 77 119 138q-32 5 -52 5h-20q-10 0 -10 6q0 11 21 42.5t40 44.5q25 18 102 18q33 43 42 54q31 35 80 35q9 0 15 -4t6 -11q0 -12 -12 -26l-42 -50q52 0 52 -18q0 -3 -8 -17q-20 -35 -54 -66q-26 -23 -59 -23l-30 1q-44 -55 -67.5 -112.5
t-23.5 -95.5q0 -30 27 -30q39 0 181 127l1 -43q-82 -88 -146.5 -132.5t-104.5 -44.5q-61 0 -61 63q0 26 8.5 54.5t27.5 64.5z" />
    <glyph glyph-name="u" unicode="u" horiz-adv-x="438" 
d="M197 134q-106 -136 -147 -136q-26 0 -49 31q-27 36 -27 89q0 47 21 88.5t68 93.5q25 27 43 39t39 12q24 0 39.5 -6t15.5 -15q0 -26 -133 -153q-19 -41 -19 -61q0 -12 5 -12q41 0 186 154q116 124 139 124q19 0 19 -42q0 -17 -2 -25.5t-19 -28.5q-51 -57 -81 -113
q-25 -46 -25 -67q0 -23 24 -23q25 0 152 113v-45q-157 -177 -215 -177q-27 0 -43.5 17.5t-16.5 45.5q0 20 5 41t21 56z" />
    <glyph glyph-name="v" unicode="v" horiz-adv-x="386" 
d="M199 85q-107 -109 -143 -109q-31 0 -58 38t-27 92q0 83 66 169q52 66 82 66q18 0 36 -9t18 -17q0 -10 -16 -41q-20 -38 -49 -68q-48 -51 -54 -61q-12 -21 -12 -46q0 -33 18 -33q28 0 107 84q19 70 70 130q44 52 65 52q9 0 19.5 -7t10.5 -21q0 -28 -20 -70t-64 -95
q15 -19 34 -19t47.5 19.5t64.5 55.5l-1 -46q-80 -88 -137 -88q-27 0 -57 24z" />
    <glyph glyph-name="w" unicode="w" horiz-adv-x="548" 
d="M198 134q-117 -130 -148 -130q-30 0 -57 39.5t-27 90.5q0 43 21.5 86t65.5 92q63 71 94 71q24 0 41.5 -8t17.5 -21q0 -19 -37 -65q-42 -52 -118 -119q-11 -36 -11 -57t9 -21q35 0 187 175q73 83 77 83q43 0 43 -16q0 -7 -7 -21q-21 -36 -35 -64q-29 -56 -43 -95.5
t-14 -60.5q0 -17 12 -17t33 23t54 67l-1 15q0 16 8.5 36t27.5 46q58 80 89 80q23 0 23 -36q0 -30 -16 -68.5t-51 -85.5q15 -15 30 -15q17 0 37.5 14t51.5 44v-44q-32 -38 -61.5 -57.5t-53.5 -19.5q-22 0 -56 29q-47 -57 -87 -86.5t-65 -29.5q-21 0 -33.5 18.5t-12.5 50.5
q0 19 2 34.5t10 42.5z" />
    <glyph glyph-name="x" unicode="x" horiz-adv-x="348" 
d="M83 80q-102 -82 -117 -82q-14 0 -14 14q0 31 134 156q3 24 6 60t3 60q-31 -13 -52 -26.5t-40 -25.5q-9 0 -9 12q0 7 8.5 17.5t28.5 30.5q104 103 128 103q12 0 21.5 -10.5t9.5 -24.5q0 -26 -15 -110q117 101 147 101q16 0 16 -17q0 -19 -60 -81l-35 -8l-70 -69l-3 -47
q0 -51 32 -51q28 0 153 114v-45q-157 -173 -213 -173q-59 0 -59 102z" />
    <glyph glyph-name="y" unicode="y" horiz-adv-x="410" 
d="M198 114q-130 -124 -171 -124q-19 0 -42 42t-23 86q0 68 68 145q38 43 79 74q35 26 43 26q14 0 30 -15t16 -26q0 -18 -31 -55q-36 -44 -100 -96q-36 -42 -36 -68q0 -11 4 -11q9 0 46 24q46 30 106 80q77 65 155 145q31 -6 31 -46q0 -25 -53 -104q-88 -132 -134 -210
q124 95 232 216v-45q-104 -115 -201 -229q-59 -70 -117 -140q-41 -48 -47 -48q-7 0 -16.5 25t-9.5 49q0 19 40 94q49 93 131 211z" />
    <glyph glyph-name="z" unicode="z" horiz-adv-x="354" 
d="M361 196v-45q-41 -49 -89.5 -93t-97.5 -76q-8 -72 -76 -156q-46 -56 -99 -91q-46 -30 -69 -30q-13 0 -22.5 17.5t-9.5 43.5q0 52 51.5 109t153.5 124v8q0 32 -26 44q-31 12 -42 16q-18 8 -18 21q0 15 51 53q101 76 141 109q-36 -9 -133 -27q-16 -18 -32 -35t-50 -51v47
l36 38q-28 10 -28 30q0 31 40.5 70.5t70.5 39.5q19 0 19 -16q0 -7 -9 -24q36 4 64 10.5t57 13.5q38 0 38 -70q0 -26 -37 -55q-66 -46 -122 -89q48 -22 54 -84l80 60q53 41 104 88zM77 -86q-40 -27 -73 -59t-61 -76q77 21 134 135z" />
    <glyph glyph-name="braceleft" unicode="{" 
d="M427 721v-87l-23 1q-56 0 -73.5 -21.5t-17.5 -83.5v-118q0 -73 -18 -103q-21 -35 -81 -50q59 -14 79 -48t20 -105v-117q0 -62 17.5 -84t74.5 -22l22 1v-86h-31q-51 0 -79.5 4.5t-53.5 19.5q-30 18 -40 52t-10 94v121q0 69 -25.5 98.5t-87.5 29.5l-21 -1v87l21 -1
q61 0 87 29t26 98v121q0 63 9 95.5t41 51.5q23 13 58 18.5t84 5.5h22z" />
    <glyph glyph-name="bar" unicode="|" 
d="M207 764h87v-1000h-87v1000z" />
    <glyph glyph-name="braceright" unicode="}" 
d="M74 721h22q54 0 85 -4.5t56 -19.5q32 -19 41 -51.5t9 -95.5v-121q0 -69 25 -98t88 -29l21 1v-87l-21 1q-63 0 -88 -29t-25 -99v-121q0 -62 -8 -90q-11 -37 -42 -56q-22 -13 -57 -18.5t-84 -5.5h-22v86l22 -1q57 0 74 21.5t17 84.5v117q0 71 20 104.5t80 48.5
q-60 14 -80 48t-20 105v118q0 62 -17 83.5t-73 21.5l-23 -1v87z" />
    <glyph glyph-name="asciitilde" unicode="~" horiz-adv-x="833" 
d="M747 383v-90q-48 -33 -95.5 -51t-90.5 -18q-44 0 -93 16.5t-98 33.5q-52 15 -95 15q-44 0 -87 -18t-101 -59v91q103 70 189 70q39 0 77 -9q24 -6 66 -20q70 -24 93.5 -30t49.5 -6q42 0 88 19t97 56z" />
    <glyph glyph-name="Adieresis" unicode="&#xc4;" horiz-adv-x="715" 
d="M516 338l77 234q-76 -70 -136 -135q-46 -49 -95 -110q44 0 79 2.5t75 8.5zM266 204l-36 -46q-180 -226 -245 -226q-21 0 -21 18q0 33 49 90q55 64 111 81l68 84q-61 0 -84 7t-23 29q0 16 25.5 46.5t50 43t57 17.5t71.5 5q-12 -12 -33 -17.5t-40 -10.5h72q315 361 374 361
q13 0 22.5 -11.5t9.5 -30.5q0 -30 -19 -88l-67 -215q61 0 83.5 -4.5t22.5 -14.5q0 -12 -20.5 -40t-50.5 -53q-11 -10 -36.5 -13t-38.5 -4q-27 -87 -27 -111q0 -25 14 -25q28 0 148 100l1 -34q-151 -164 -221 -164q-54 0 -54 56q0 19 12 61q5 19 38 118q-42 -5 -83.5 -7
t-129.5 -2zM593 789q0 19 20 38t46 19q29 0 29 -29q0 -21 -20.5 -41.5t-43.5 -20.5q-31 0 -31 34zM728 789q0 19 20 38t46 19q29 0 29 -29q0 -21 -20.5 -41.5t-43.5 -20.5q-31 0 -31 34z" />
    <glyph glyph-name="Aring" unicode="&#xc5;" horiz-adv-x="715" 
d="M745 856l-21 2q-25 0 -50 -20t-25 -44q0 -33 19 -33q25 0 51.5 24.5t26.5 57.5zM772 878q19 -23 19 -60q0 -41 -33 -69t-74 -28q-33 0 -54 24t-21 63q0 44 41 76t92 32q33 0 33 -21zM516 338l77 234q-76 -70 -136 -135q-46 -49 -95 -110q44 0 79 2.5t75 8.5zM266 204
l-36 -46q-180 -226 -245 -226q-21 0 -21 18q0 33 49 90q55 64 111 81l68 84q-61 0 -84 7t-23 29q0 16 25.5 46.5t50 43t57 17.5t71.5 5q-12 -12 -33 -17.5t-40 -10.5h72q315 361 374 361q13 0 22.5 -11.5t9.5 -30.5q0 -30 -19 -88l-67 -215q61 0 83.5 -4.5t22.5 -14.5
q0 -12 -20.5 -40t-50.5 -53q-11 -10 -36.5 -13t-38.5 -4q-27 -87 -27 -111q0 -25 14 -25q28 0 148 100l1 -34q-151 -164 -221 -164q-54 0 -54 56q0 19 12 61q5 19 38 118q-42 -5 -83.5 -7t-129.5 -2z" />
    <glyph glyph-name="Ccedilla" unicode="&#xc7;" horiz-adv-x="679" 
d="M154 -29q-66 14 -104.5 61.5t-38.5 116.5q0 90 68 193q73 110 209 211q111 83 203.5 125t156.5 42q42 0 65 -22t23 -60q0 -106 -147 -244q-71 -67 -139 -108q-55 -33 -77 -33q-19 0 -37.5 21.5t-18.5 44.5q0 56 172 156l4 -21q71 54 114 109q37 47 37 69q0 20 -20 20
q-24 0 -88 -36q-80 -45 -166 -120q-101 -87 -157 -180q-52 -87 -52 -155q0 -45 26 -70.5t75 -25.5q152 0 393 198l6 -41q-126 -127 -243 -192t-210 -65h-12l-23 -31q64 -6 64 -52q0 -19 -20 -48q-23 -33 -56 -57q-46 -32 -111 -32q-58 0 -58 38q0 14 12 34q75 27 97 27
q4 0 7 -2q1 0 3 -2q0 -6 -9 -12t-19 -13q14 -9 26 -9q30 0 54.5 14.5t24.5 30.5q0 13 -22.5 23.5t-61.5 10.5q9 17 19.5 36.5t30.5 49.5z" />
    <glyph glyph-name="Eacute" unicode="&#xc9;" horiz-adv-x="661" 
d="M580 743q-26 0 -26 9q14 19 31.5 43t32.5 55q8 15 14.5 18t35.5 3q22 0 22 -11q0 -17 -39 -62q-23 -26 -29 -32q-23 -23 -42 -23zM596 168l3 -36q0 -123 -149 -195q-120 -58 -253 -58q-97 0 -148.5 38.5t-51.5 108.5q0 89 97 164q104 80 285 114q-274 0 -274 133
q0 91 119 170q61 40 141.5 62t174.5 22q52 0 91 -7.5t51.5 -18.5t12.5 -40v-23q0 -32 -9 -43.5t-37 -25.5l-152 -73q-4 0 -6 3q-1 1 -1 2q0 27 75 74l-43 1q-65 0 -131.5 -17t-123.5 -49.5t-57 -57.5q0 -42 188 -42q178 0 178 -32q0 -12 -12 -33t-32 -39
q-13 -12 -44.5 -16.5t-52.5 -8.5q-167 -33 -261 -99q-70 -49 -70 -86q0 -40 102 -40q100 0 195 38q79 32 195 110z" />
    <glyph glyph-name="Ntilde" unicode="&#xd1;" horiz-adv-x="713" 
d="M566 738q-20 0 -20 23q0 26 24.5 59t52.5 33q24 0 57.5 -25.5t43.5 -25.5q16 0 31 30t29 30q17 0 17 -20q0 -30 -20 -62.5t-45 -32.5q-22 0 -55 24t-45 24q-15 0 -33 -28.5t-37 -28.5zM705 180l1 -45q-82 -104 -171 -167q-76 -54 -117 -54q-27 0 -43.5 20.5t-16.5 52.5
q0 57 36.5 137t110.5 188q23 34 77 107q39 53 50 78q-70 -45 -144 -112q-77 -71 -156 -163q-186 -217 -195 -217q-12 0 -36.5 23.5t-24.5 39.5q0 8 168 277q106 171 106 196q0 16 -22 16q-14 0 -54 -14q-51 -18 -116 -49q-27 -13 -84 -42.5t-67 -29.5t-10 23q0 30 21 67.5
t61 70.5q103 85 120 85l5 -4q0 -5 -12 -15l-43 -36q89 45 151.5 67.5t97.5 22.5q33 0 53.5 -16.5t20.5 -43.5q0 -45 -56 -145q-52 -93 -164 -257q111 128 220 231q92 87 153.5 129.5t83.5 42.5q18 0 33 -24t15 -56q0 -61 -65 -153q-21 -29 -85 -114q-118 -156 -118 -216
q0 -34 30 -34q45 0 186 133z" />
    <glyph glyph-name="Odieresis" unicode="&#xd6;" horiz-adv-x="586" 
d="M478 524l27 2q87 0 87 -91q0 -88 -47 -190q-54 -117 -141 -190q-103 -86 -229 -86q-64 0 -110 62t-46 151q0 115 91 233q79 103 195 176q109 69 179 69q19 0 31 -8q8 -5 26 -26q35 -41 35 -60q0 -8 -35 -18t-63 -24zM214 283l-1 39q-47 -50 -77 -125q-26 -65 -26 -110
q0 -25 11.5 -38.5t33.5 -13.5q45 0 108 39q71 44 135 123q56 70 89 140q28 60 28 96q0 43 -37 43q-50 0 -122 -46q-88 -56 -142 -147zM427 787q0 19 20 38t46 19q29 0 29 -29q0 -21 -20.5 -41.5t-43.5 -20.5q-31 0 -31 34zM562 787q0 19 20 38t46 19q29 0 29 -29
q0 -21 -20.5 -41.5t-43.5 -20.5q-31 0 -31 34z" />
    <glyph glyph-name="Udieresis" unicode="&#xdc;" horiz-adv-x="806" 
d="M644 390q-356 -409 -425 -409q-28 0 -52 29q-27 32 -27 74q0 51 38 117q31 55 105 149q41 51 83 105t61 89q-66 -25 -147 -70q-56 -32 -110.5 -61.5t-83.5 -29.5q-15 0 -23.5 7.5t-8.5 18.5q0 16 29 79q33 73 87 109q61 42 155 70q55 17 102 25t63 8q32 0 45.5 -16.5
t13.5 -53.5q0 -64 -34 -120q-3 -5 -84 -115q-156 -212 -156 -257q0 -8 6 -8q39 0 293 272q15 16 162 182q58 65 76 65q13 0 24.5 -20t11.5 -52q0 -28 -116 -205q-130 -199 -130 -268q0 -38 31 -38q22 0 65.5 28t101.5 83l2 -45q-54 -72 -126 -119q-65 -42 -108 -42
q-34 0 -54 24t-20 69q0 54 39 136q35 74 111 190zM628 789q0 19 20 38t46 19q29 0 29 -29q0 -21 -20.5 -41.5t-43.5 -20.5q-31 0 -31 34zM763 789q0 19 20 38t46 19q29 0 29 -29q0 -21 -20.5 -41.5t-43.5 -20.5q-31 0 -31 34z" />
    <glyph glyph-name="aacute" unicode="&#xe1;" horiz-adv-x="452" 
d="M307 436q-26 0 -26 9q14 19 31.5 43t32.5 55q8 15 14.5 18t35.5 3q22 0 22 -11q0 -17 -39 -62q-23 -26 -29 -32q-23 -23 -42 -23zM298 310q-255 -109 -255 -194q0 -27 17 -27q23 0 84 53q73 63 154 168zM218 137q-131 -138 -173 -138q-19 0 -48 47q-32 52 -32 96
q0 67 98 148q58 49 148 86q79 33 118 33q18 0 33 -18t15 -33q0 -8 -18 -18l-18 -11l17 -35q6 -12 6 -19q0 -11 -38.5 -66.5t-38.5 -86.5q0 -24 29 -24q39 0 143 98l1 -43q-161 -175 -212 -175q-23 0 -38.5 16.5t-15.5 43.5q0 19 10 54q3 10 14 45z" />
    <glyph glyph-name="agrave" unicode="&#xe0;" horiz-adv-x="452" 
d="M341 441q0 -7 -10 -7q-22 0 -33 7q-5 3 -21 18q-30 27 -51 60q-17 26 -17 36q0 8 21 8q25 0 29 -1q9 -2 13 -10q19 -37 47 -76q22 -31 22 -35zM298 310q-255 -109 -255 -194q0 -27 17 -27q23 0 84 53q73 63 154 168zM218 137q-131 -138 -173 -138q-19 0 -48 47
q-32 52 -32 96q0 67 98 148q58 49 148 86q79 33 118 33q18 0 33 -18t15 -33q0 -8 -18 -18l-18 -11l17 -35q6 -12 6 -19q0 -11 -38.5 -66.5t-38.5 -86.5q0 -24 29 -24q39 0 143 98l1 -43q-161 -175 -212 -175q-23 0 -38.5 16.5t-15.5 43.5q0 19 10 54q3 10 14 45z" />
    <glyph glyph-name="acircumflex" unicode="&#xe2;" horiz-adv-x="452" 
d="M325 507q-42 -30 -83 -60q-22 -13 -42 -13t-20 12q0 5 18 20l96 78q14 11 25.5 16.5t33.5 5.5q38 0 38 -110q0 -10 -4 -18q-1 -2 -4 -6q-33 0 -36 8l-4 22q-5 21 -18 45zM298 310q-255 -109 -255 -194q0 -27 17 -27q23 0 84 53q73 63 154 168zM218 137
q-131 -138 -173 -138q-19 0 -48 47q-32 52 -32 96q0 67 98 148q58 49 148 86q79 33 118 33q18 0 33 -18t15 -33q0 -8 -18 -18l-18 -11l17 -35q6 -12 6 -19q0 -11 -38.5 -66.5t-38.5 -86.5q0 -24 29 -24q39 0 143 98l1 -43q-161 -175 -212 -175q-23 0 -38.5 16.5t-15.5 43.5
q0 19 10 54q3 10 14 45z" />
    <glyph glyph-name="adieresis" unicode="&#xe4;" horiz-adv-x="452" 
d="M298 310q-255 -109 -255 -194q0 -27 17 -27q23 0 84 53q73 63 154 168zM218 137q-131 -138 -173 -138q-19 0 -48 47q-32 52 -32 96q0 67 98 148q58 49 148 86q79 33 118 33q18 0 33 -18t15 -33q0 -8 -18 -18l-18 -11l17 -35q6 -12 6 -19q0 -11 -38.5 -66.5t-38.5 -86.5
q0 -24 29 -24q39 0 143 98l1 -43q-161 -175 -212 -175q-23 0 -38.5 16.5t-15.5 43.5q0 19 10 54q3 10 14 45zM202 482q0 19 20 38t46 19q29 0 29 -29q0 -21 -20.5 -41.5t-43.5 -20.5q-31 0 -31 34zM337 482q0 19 20 38t46 19q29 0 29 -29q0 -21 -20.5 -41.5t-43.5 -20.5
q-31 0 -31 34z" />
    <glyph glyph-name="atilde" unicode="&#xe3;" horiz-adv-x="452" 
d="M298 310q-255 -109 -255 -194q0 -27 17 -27q23 0 84 53q73 63 154 168zM218 137q-131 -138 -173 -138q-19 0 -48 47q-32 52 -32 96q0 67 98 148q58 49 148 86q79 33 118 33q18 0 33 -18t15 -33q0 -8 -18 -18l-18 -11l17 -35q6 -12 6 -19q0 -11 -38.5 -66.5t-38.5 -86.5
q0 -24 29 -24q39 0 143 98l1 -43q-161 -175 -212 -175q-23 0 -38.5 16.5t-15.5 43.5q0 19 10 54q3 10 14 45zM206 433q-20 0 -20 23q0 26 24.5 59t52.5 33q24 0 57.5 -25.5t43.5 -25.5q16 0 31 30t29 30q17 0 17 -20q0 -30 -20 -62.5t-45 -32.5q-22 0 -55 24t-45 24
q-15 0 -33 -28.5t-37 -28.5z" />
    <glyph glyph-name="aring" unicode="&#xe5;" horiz-adv-x="452" 
d="M350 579l-21 2q-25 0 -50 -20.5t-25 -44.5q0 -33 19 -33q25 0 51.5 25.5t26.5 57.5zM378 600q11 -13 15 -26.5t4 -32.5q0 -42 -32.5 -70t-74.5 -28q-32 0 -54 24t-22 63q0 45 41 76.5t93 31.5q33 0 33 -21zM298 310q-255 -109 -255 -194q0 -27 17 -27q23 0 84 53
q73 63 154 168zM218 137q-131 -138 -173 -138q-19 0 -48 47q-32 52 -32 96q0 67 98 148q58 49 148 86q79 33 118 33q18 0 33 -18t15 -33q0 -8 -18 -18l-18 -11l17 -35q6 -12 6 -19q0 -11 -38.5 -66.5t-38.5 -86.5q0 -24 29 -24q39 0 143 98l1 -43q-161 -175 -212 -175
q-23 0 -38.5 16.5t-15.5 43.5q0 19 10 54q3 10 14 45z" />
    <glyph glyph-name="ccedilla" unicode="&#xe7;" horiz-adv-x="323" 
d="M47 -12q-30 20 -49.5 59t-19.5 86q0 95 96 175q43 37 91 58.5t74 21.5q46 0 46 -41q0 -39 -38 -86.5t-61 -47.5q-21 0 -21 34q-81 -49 -115 -100v-10q0 -68 61 -68q44 0 98 32t120 94l1 -44q-155 -176 -242 -176h-5l-29 -41q64 -6 64 -52q0 -19 -20 -48q-23 -33 -56 -57
q-46 -32 -111 -32q-58 0 -58 38q0 6 1.5 13.5t10.5 20.5q75 27 96 27q4 0 8 -2q1 0 3 -2q0 -5 -9 -11.5t-19 -13.5q14 -9 26 -9q30 0 54.5 14.5t24.5 30.5q0 13 -22.5 23.5t-61.5 10.5q31 61 62 103z" />
    <glyph glyph-name="eacute" unicode="&#xe9;" horiz-adv-x="322" 
d="M239 436q-26 0 -26 9q14 19 31.5 43t32.5 55q8 15 14.5 18t35.5 3q22 0 22 -11q0 -17 -39 -62q-23 -26 -29 -32q-23 -23 -42 -23zM58 191q170 77 170 127q0 11 -7 11q-26 0 -71 -32q-58 -41 -92 -106zM54 148v-5q0 -34 17.5 -53.5t47.5 -19.5q37 0 89 30q58 33 121 95
v-44q-150 -167 -257 -167q-54 0 -83.5 34.5t-29.5 99.5q0 95 87.5 180.5t187.5 85.5q71 0 71 -44q0 -48 -65 -103q-73 -62 -186 -89z" />
    <glyph glyph-name="egrave" unicode="&#xe8;" horiz-adv-x="322" 
d="M272 441q0 -7 -9 -7q-23 0 -34 7q-2 1 -21 18q-31 29 -51 60q-16 25 -16 36q0 8 21 8q25 0 29 -1q9 -2 13 -10q20 -37 55 -88q13 -19 13 -23zM58 191q170 77 170 127q0 11 -7 11q-26 0 -71 -32q-58 -41 -92 -106zM54 148v-5q0 -34 17.5 -53.5t47.5 -19.5q37 0 89 30
q58 33 121 95v-44q-150 -167 -257 -167q-54 0 -83.5 34.5t-29.5 99.5q0 95 87.5 180.5t187.5 85.5q71 0 71 -44q0 -48 -65 -103q-73 -62 -186 -89z" />
    <glyph glyph-name="ecircumflex" unicode="&#xea;" horiz-adv-x="322" 
d="M257 507q-42 -30 -83 -60q-22 -13 -42 -13t-20 12q0 5 18 20l96 78q15 12 25.5 17t33.5 5q38 0 38 -110q0 -24 -9 -24q-32 0 -35 8l-4 22q-5 21 -18 45zM58 191q170 77 170 127q0 11 -7 11q-26 0 -71 -32q-58 -41 -92 -106zM54 148v-5q0 -34 17.5 -53.5t47.5 -19.5
q37 0 89 30q58 33 121 95v-44q-150 -167 -257 -167q-54 0 -83.5 34.5t-29.5 99.5q0 95 87.5 180.5t187.5 85.5q71 0 71 -44q0 -48 -65 -103q-73 -62 -186 -89z" />
    <glyph glyph-name="edieresis" unicode="&#xeb;" horiz-adv-x="322" 
d="M58 191q170 77 170 127q0 11 -7 11q-26 0 -71 -32q-58 -41 -92 -106zM54 148v-5q0 -34 17.5 -53.5t47.5 -19.5q37 0 89 30q58 33 121 95v-44q-150 -167 -257 -167q-54 0 -83.5 34.5t-29.5 99.5q0 95 87.5 180.5t187.5 85.5q71 0 71 -44q0 -48 -65 -103q-73 -62 -186 -89z
M131 480q0 19 20 38t46 19q29 0 29 -29q0 -21 -20.5 -41.5t-43.5 -20.5q-31 0 -31 34zM266 480q0 19 20 38t46 19q29 0 29 -29q0 -21 -20.5 -41.5t-43.5 -20.5q-31 0 -31 34z" />
    <glyph glyph-name="iacute" unicode="&#xed;" horiz-adv-x="255" 
d="M205 436q-26 0 -26 9q13 19 31.5 44t32.5 54q7 15 13.5 18t35.5 3q22 0 22 -11q0 -8 -9.5 -24t-29.5 -38q-26 -31 -37 -40q-17 -15 -33 -15zM262 195l1 -44q-131 -162 -209 -162q-41 0 -64.5 34.5t-23.5 97.5q0 56 23 102t73 95.5t91 49.5q33 0 33 -28t-32 -72.5
t-99 -101.5q-5 -20 -5 -33q0 -48 48 -48q24 0 64.5 26.5t99.5 83.5z" />
    <glyph glyph-name="igrave" unicode="&#xec;" horiz-adv-x="255" 
d="M239 441q0 -7 -10 -7q-23 0 -34 7q-2 1 -21 18q-30 27 -51 60q-17 26 -17 36q0 8 21 8q38 0 42 -11q20 -37 48 -76q22 -31 22 -35zM262 195l1 -44q-131 -162 -209 -162q-41 0 -64.5 34.5t-23.5 97.5q0 56 23 102t73 95.5t91 49.5q33 0 33 -28t-32 -72.5t-99 -101.5
q-5 -20 -5 -33q0 -48 48 -48q24 0 64.5 26.5t99.5 83.5z" />
    <glyph glyph-name="icircumflex" unicode="&#xee;" horiz-adv-x="255" 
d="M223 507q-42 -30 -83 -60q-22 -13 -42 -13t-20 12q0 6 18 20l95 78q14 12 26 17t33 5q39 0 39 -110q0 -10 -4 -18q-1 -2 -4 -6q-21 0 -26 1q-8 1 -10 9.5t-4 19.5q-5 21 -18 45zM262 195l1 -44q-131 -162 -209 -162q-41 0 -64.5 34.5t-23.5 97.5q0 56 23 102t73 95.5
t91 49.5q33 0 33 -28t-32 -72.5t-99 -101.5q-5 -20 -5 -33q0 -48 48 -48q24 0 64.5 26.5t99.5 83.5z" />
    <glyph glyph-name="idieresis" unicode="&#xef;" horiz-adv-x="255" 
d="M262 195l1 -44q-131 -162 -209 -162q-41 0 -64.5 34.5t-23.5 97.5q0 56 23 102t73 95.5t91 49.5q33 0 33 -28t-32 -72.5t-99 -101.5q-5 -20 -5 -33q0 -48 48 -48q24 0 64.5 26.5t99.5 83.5zM99 481q0 19 20 38t46 19q29 0 29 -29q0 -21 -20.5 -41.5t-43.5 -20.5
q-31 0 -31 34zM234 481q0 19 20 38t46 19q29 0 29 -29q0 -21 -20.5 -41.5t-43.5 -20.5q-31 0 -31 34z" />
    <glyph glyph-name="ntilde" unicode="&#xf1;" horiz-adv-x="402" 
d="M-35 156q77 171 143 171q20 0 34.5 -6.5t14.5 -15.5q0 -19 -86 -116q-26 -29 -26 -59q97 109 183 176q71 55 97 55q12 0 22 -19t10 -43q0 -22 -19 -44.5t-39 -44.5q-19 -25 -33 -51q-20 -37 -20 -51q0 -21 20 -21q13 0 48 27t95 83l1 -45q-161 -175 -214 -175
q-24 0 -38.5 18.5t-14.5 49.5q0 59 88 180q-54 -50 -168 -187q-31 -37 -46 -37q-23 0 -38 34.5t-15 93.5zM174 434q-20 0 -20 23q0 26 24.5 59t52.5 33q24 0 57.5 -25.5t43.5 -25.5q16 0 31 30t29 30q17 0 17 -20q0 -30 -20 -62.5t-45 -32.5q-22 0 -55 24t-45 24
q-15 0 -33 -28.5t-37 -28.5z" />
    <glyph glyph-name="oacute" unicode="&#xf3;" horiz-adv-x="359" 
d="M239 436q-26 0 -26 9q14 19 31.5 43t32.5 55q8 15 14.5 18t35.5 3q22 0 22 -11q0 -17 -39 -62q-23 -26 -29 -32q-23 -23 -42 -23zM148 100l-2 31q0 53 50 145q-73 -30 -119 -85q-41 -49 -41 -89q0 -39 39 -39q36 0 73 37zM198 55q-65 -71 -129 -71q-44 0 -75 38t-31 101
q0 42 23 89t66 87q36 34 76.5 52.5t73.5 18.5q29 0 49.5 -11.5t20.5 -23.5q0 -2 -6 -9t-12 -15q32 0 32 -47q0 -70 -54 -157q23 0 55.5 23t80.5 70l-1 -50q-48 -48 -83.5 -72t-64.5 -24z" />
    <glyph glyph-name="ograve" unicode="&#xf2;" horiz-adv-x="359" 
d="M272 441q0 -7 -9 -7q-23 0 -34 7q-2 1 -21 18q-31 29 -51 60q-16 25 -16 36q0 8 21 8q25 0 29 -1q9 -2 13 -10q20 -37 55 -88q13 -19 13 -23zM148 100l-2 31q0 53 50 145q-73 -30 -119 -85q-41 -49 -41 -89q0 -39 39 -39q36 0 73 37zM198 55q-65 -71 -129 -71
q-44 0 -75 38t-31 101q0 42 23 89t66 87q36 34 76.5 52.5t73.5 18.5q29 0 49.5 -11.5t20.5 -23.5q0 -2 -6 -9t-12 -15q32 0 32 -47q0 -70 -54 -157q23 0 55.5 23t80.5 70l-1 -50q-48 -48 -83.5 -72t-64.5 -24z" />
    <glyph glyph-name="ocircumflex" unicode="&#xf4;" horiz-adv-x="359" 
d="M257 507q-42 -30 -83 -60q-22 -13 -42 -13t-20 12q0 5 18 20l96 78q15 12 25.5 17t33.5 5q38 0 38 -110q0 -24 -9 -24q-32 0 -35 8l-4 22q-5 21 -18 45zM148 100l-2 31q0 53 50 145q-73 -30 -119 -85q-41 -49 -41 -89q0 -39 39 -39q36 0 73 37zM198 55q-65 -71 -129 -71
q-44 0 -75 38t-31 101q0 42 23 89t66 87q36 34 76.5 52.5t73.5 18.5q29 0 49.5 -11.5t20.5 -23.5q0 -2 -6 -9t-12 -15q32 0 32 -47q0 -70 -54 -157q23 0 55.5 23t80.5 70l-1 -50q-48 -48 -83.5 -72t-64.5 -24z" />
    <glyph glyph-name="odieresis" unicode="&#xf6;" horiz-adv-x="359" 
d="M148 100l-2 31q0 53 50 145q-73 -30 -119 -85q-41 -49 -41 -89q0 -39 39 -39q36 0 73 37zM198 55q-65 -71 -129 -71q-44 0 -75 38t-31 101q0 42 23 89t66 87q36 34 76.5 52.5t73.5 18.5q29 0 49.5 -11.5t20.5 -23.5q0 -2 -6 -9t-12 -15q32 0 32 -47q0 -70 -54 -157
q23 0 55.5 23t80.5 70l-1 -50q-48 -48 -83.5 -72t-64.5 -24zM138 482q0 19 20 38t46 19q29 0 29 -29q0 -21 -20.5 -41.5t-43.5 -20.5q-31 0 -31 34zM273 482q0 19 20 38t46 19q29 0 29 -29q0 -21 -20.5 -41.5t-43.5 -20.5q-31 0 -31 34z" />
    <glyph glyph-name="otilde" unicode="&#xf5;" horiz-adv-x="359" 
d="M148 100l-2 31q0 53 50 145q-73 -30 -119 -85q-41 -49 -41 -89q0 -39 39 -39q36 0 73 37zM198 55q-65 -71 -129 -71q-44 0 -75 38t-31 101q0 42 23 89t66 87q36 34 76.5 52.5t73.5 18.5q29 0 49.5 -11.5t20.5 -23.5q0 -2 -6 -9t-12 -15q32 0 32 -47q0 -70 -54 -157
q23 0 55.5 23t80.5 70l-1 -50q-48 -48 -83.5 -72t-64.5 -24zM136 433q-20 0 -20 23q0 26 24.5 59t52.5 33q24 0 57.5 -25.5t43.5 -25.5q16 0 31 30t29 30q17 0 17 -20q0 -30 -20 -62.5t-45 -32.5q-22 0 -55 24t-45 24q-15 0 -33 -28.5t-37 -28.5z" />
    <glyph glyph-name="uacute" unicode="&#xfa;" horiz-adv-x="438" 
d="M290 436q-26 0 -26 9q14 19 31.5 43t32.5 55q8 15 14.5 18t35.5 3q22 0 22 -11q0 -17 -39 -62q-23 -26 -29 -32q-23 -23 -42 -23zM197 134q-106 -136 -147 -136q-26 0 -49 31q-27 36 -27 89q0 47 21 88.5t68 93.5q25 27 43 39t39 12q24 0 39.5 -6t15.5 -15
q0 -26 -133 -153q-19 -41 -19 -61q0 -12 5 -12q41 0 186 154q116 124 139 124q19 0 19 -42q0 -17 -2 -25.5t-19 -28.5q-51 -57 -81 -113q-25 -46 -25 -67q0 -23 24 -23q25 0 152 113v-45q-157 -177 -215 -177q-27 0 -43.5 17.5t-16.5 45.5q0 20 5 41t21 56z" />
    <glyph glyph-name="ugrave" unicode="&#xf9;" horiz-adv-x="438" 
d="M324 441q0 -7 -10 -7q-22 0 -33 7q-5 3 -21 18q-30 27 -51 60q-17 26 -17 36q0 8 21 8q25 0 29 -1q9 -2 13 -10q19 -37 47 -76q22 -31 22 -35zM197 134q-106 -136 -147 -136q-26 0 -49 31q-27 36 -27 89q0 47 21 88.5t68 93.5q25 27 43 39t39 12q24 0 39.5 -6t15.5 -15
q0 -26 -133 -153q-19 -41 -19 -61q0 -12 5 -12q41 0 186 154q116 124 139 124q19 0 19 -42q0 -17 -2 -25.5t-19 -28.5q-51 -57 -81 -113q-25 -46 -25 -67q0 -23 24 -23q25 0 152 113v-45q-157 -177 -215 -177q-27 0 -43.5 17.5t-16.5 45.5q0 20 5 41t21 56z" />
    <glyph glyph-name="ucircumflex" unicode="&#xfb;" horiz-adv-x="438" 
d="M308 507q-42 -30 -83 -60q-22 -13 -42 -13t-20 12q0 5 18 20l96 78q14 11 25.5 16.5t33.5 5.5q38 0 38 -110q0 -10 -4 -18q-1 -2 -4 -6q-33 0 -36 8l-4 22q-5 21 -18 45zM197 134q-106 -136 -147 -136q-26 0 -49 31q-27 36 -27 89q0 47 21 88.5t68 93.5q25 27 43 39
t39 12q24 0 39.5 -6t15.5 -15q0 -26 -133 -153q-19 -41 -19 -61q0 -12 5 -12q41 0 186 154q116 124 139 124q19 0 19 -42q0 -17 -2 -25.5t-19 -28.5q-51 -57 -81 -113q-25 -46 -25 -67q0 -23 24 -23q25 0 152 113v-45q-157 -177 -215 -177q-27 0 -43.5 17.5t-16.5 45.5
q0 20 5 41t21 56z" />
    <glyph glyph-name="udieresis" unicode="&#xfc;" horiz-adv-x="438" 
d="M197 134q-106 -136 -147 -136q-26 0 -49 31q-27 36 -27 89q0 47 21 88.5t68 93.5q25 27 43 39t39 12q24 0 39.5 -6t15.5 -15q0 -26 -133 -153q-19 -41 -19 -61q0 -12 5 -12q41 0 186 154q116 124 139 124q19 0 19 -42q0 -17 -2 -25.5t-19 -28.5q-51 -57 -81 -113
q-25 -46 -25 -67q0 -23 24 -23q25 0 152 113v-45q-157 -177 -215 -177q-27 0 -43.5 17.5t-16.5 45.5q0 20 5 41t21 56zM182 481q0 19 20 38t46 19q29 0 29 -29q0 -21 -20.5 -41.5t-43.5 -20.5q-31 0 -31 34zM317 481q0 19 20 38t46 19q29 0 29 -29q0 -21 -20.5 -41.5
t-43.5 -20.5q-31 0 -31 34z" />
    <glyph glyph-name="dagger" unicode="&#x2020;" 
d="M344 382q-48 -97 -88 -193t-72 -194q-4 -12 -35 -124q-12 -43 -24 -43q-17 0 -41.5 31.5t-24.5 55.5q0 26 9 52t17 26q15 60 59 163q50 113 100 227l-38 -2h-4q-37 0 -78 31q-13 10 -33 31q0 3 16.5 10.5t23.5 7.5q10 -3 39.5 -5.5t66.5 -2.5l47 4q49 105 103 173
q46 58 66 58q16 0 16 -17l-3 -21q6 -13 6 -22q0 -7 -14 -31q-52 -90 -72 -131h36h10q20 0 32 -7q67 -42 67 -52q0 -7 -11.5 -12.5t-28.5 -5.5q-11 0 -16 5q-36 -5 -71 -8.5t-60 -3.5z" />
    <glyph glyph-name="degree" unicode="&#xb0;" horiz-adv-x="329" 
d="M165 713q60 0 102 -42t42 -103q0 -59 -42.5 -101.5t-102.5 -42.5t-101.5 41.5t-41.5 102.5t42 103t102 42zM165 659q-37 0 -64 -26t-27 -64t26.5 -64.5t64.5 -26.5t64 27t26 64q0 38 -26 64t-64 26z" />
    <glyph glyph-name="cent" unicode="&#xa2;" horiz-adv-x="567" 
d="M232 218q-1 -8 -2 -23t-1 -27v-47q0 -21 -13 -21q-19 0 -40 20t-21 44q0 11 3.5 26.5t5.5 27.5q-97 0 -97 104q0 79 54 141t143 80q25 58 39 74q18 21 52 21q18 0 18 -8q0 -5 -10 -25l-27 -52h17q34 0 46.5 -10.5t12.5 -37.5q0 -61 -73 -71l13 25l-22 3l-29 -3l-51 -143
q37 11 88 36q21 10 26 10q14 0 14 -28q0 -40 -35 -66q-29 -21 -111 -50zM183 305l45 135q-45 -21 -76 -58q-25 -30 -25 -49q0 -29 38 -29z" />
    <glyph glyph-name="sterling" unicode="&#xa3;" horiz-adv-x="567" 
d="M234 77q17 0 142 -21q65 -11 112 -11q-46 -70 -63 -86.5t-50 -16.5q-31 0 -74 4q-118 11 -174 11l-60 -1q-31 -19 -56 -29t-38 -10q-16 0 -16 15q0 5 9.5 27.5t27 52.5t45.5 38l54 12q31 8 52 23q69 51 69 101q0 5 -2 14t-5 19q-29 0 -53.5 -3.5t-47.5 -6.5q-13 0 -21 5
t-8 13q0 49 107 49q-11 30 -18 56.5t-7 48.5q0 98 107 176q52 38 116.5 59t126.5 21q67 0 110.5 -23.5t43.5 -59.5q0 -31 -29 -68t-43 -37q-10 0 -10 10q2 7 4 15.5t2 19.5q-42 12 -84 12q-92 0 -177.5 -51t-85.5 -100q0 -18 9.5 -42t13.5 -35q204 0 204 -50q0 -26 -15 -26
q-4 0 -83 11q-43 6 -73 6h-11q5 -18 5 -29q0 -45 -56 -113z" />
    <glyph glyph-name="section" unicode="&#xa7;" horiz-adv-x="550" 
d="M225 203q186 28 186 67q0 30 -103 89q-160 -13 -160 -66q0 -29 77 -90zM322 119q82 -90 82 -127q0 -27 -15.5 -56t-42.5 -48q-42 -29 -87 -46t-74 -17q-22 0 -49.5 11t-60.5 31q-95 59 -95 87q0 7 15 29q7 10 19 29.5t16 19.5q6 0 25 -14q49 -36 52 -38q41 -29 63 -29
q36 0 76.5 19.5t40.5 33.5q0 11 -29 37q-72 64 -73 65q-73 69 -99 104q-36 48 -36 91q0 96 167 133q-66 56 -66 107q0 46 76 115q20 17 57 27t90 10q93 0 148 -20.5t55 -53.5q0 -28 -19 -49q-23 -26 -64 -26q-17 0 -45 5l26 17q-20 11 -41 14.5t-51 3.5q-70 0 -110 -3.5
t-40 -28.5q0 -19 127 -116q146 -113 146 -167q0 -56 -41 -87q-37 -28 -143 -63z" />
    <glyph glyph-name="bullet" unicode="&#x2022;" horiz-adv-x="590" 
d="M150 372q0 60 42 102t103 42q60 0 102 -42t42 -102q0 -59 -42 -102t-103 -43q-60 0 -102 42t-42 103z" />
    <glyph glyph-name="paragraph" unicode="&#xb6;" 
d="M473 722v-48h-57v-674h-63v674h-83v-674h-63v383q-83 0 -131.5 47.5t-48.5 121.5q0 76 52 123t139 47h255z" />
    <glyph glyph-name="germandbls" unicode="&#xdf;" horiz-adv-x="570" 
d="M119 262q-47 -53 -80 -85q-39 -38 -69 -59l-16 28q77 74 148 160q64 77 134 180q75 109 76 111q58 78 109 78q67 0 67 -100q0 -79 -26 -126t-105 -101q85 -68 85 -136q0 -71 -94 -144l36 -4q48 0 167 110v-46q-61 -77 -134 -122q-67 -41 -117 -41q-26 0 -59 14
q-36 -17 -54 -17q-26 0 -45.5 15.5t-19.5 39.5q0 36 29 60t73 24l48 -3q76 75 76 130q0 24 -15 52q-33 62 -33 67q0 19 28 44q34 30 47 54q17 30 17 73q0 42 -15 72q-85 -129 -159 -259q-55 -96 -115 -213q-28 -55 -81 -163q-71 -146 -111 -146q-17 0 -17 32q0 80 50 145
l72 86z" />
    <glyph glyph-name="registered" unicode="&#xae;" horiz-adv-x="833" 
d="M416 718q153 0 259 -108q103 -105 103 -253q0 -153 -107.5 -257.5t-254.5 -104.5q-72 0 -138 28t-118 81q-105 107 -105 253q0 73 28 139t81 119q103 103 252 103zM417 665q-127 0 -215 -88q-93 -95 -93 -220t90.5 -216.5t212.5 -91.5q130 0 221.5 88.5t91.5 214.5
q0 131 -90 222t-218 91zM269 566h156q171 0 171 -110q0 -92 -90 -112l90 -183h-97l-80 169h-63v-169h-87v405zM356 511v-127h57q94 0 94 62q0 65 -98 65h-53z" />
    <glyph glyph-name="copyright" unicode="&#xa9;" horiz-adv-x="833" 
d="M416 718q151 0 256.5 -105.5t105.5 -255.5q0 -153 -104 -254q-110 -108 -258 -108q-147 0 -254 107t-107 255q0 71 28 137t80 119q103 105 253 105zM417 665q-130 0 -217 -89q-91 -93 -91 -219t91 -217t217 -91q125 0 219 92q89 87 89 216t-89.5 218.5t-218.5 89.5z
M589 441h-81q-11 75 -93 75q-47 0 -75 -41.5t-28 -117.5q0 -75 28 -115t80 -40q38 0 62.5 21.5t29.5 60.5h81q0 -65 -49.5 -105.5t-126.5 -40.5q-89 0 -141.5 57.5t-52.5 158.5t54 161.5t142 60.5q73 0 121.5 -37.5t48.5 -97.5z" />
    <glyph glyph-name="trademark" unicode="&#x2122;" horiz-adv-x="833" 
d="M110 713h228v-46h-82v-219h-63v219h-83v46zM395 713h83l69 -176l65 176h83v-265h-56v209l-78 -209h-29l-81 209v-209h-56v265z" />
    <glyph glyph-name="acute" unicode="&#xb4;" 
d="M324 436q-26 0 -26 9q14 19 31.5 43t32.5 55q8 15 14.5 18t35.5 3q22 0 22 -11q0 -17 -39 -62q-23 -26 -29 -32q-23 -23 -42 -23z" />
    <glyph glyph-name="dieresis" unicode="&#xa8;" 
d="M219 481q0 19 20 38t46 19q29 0 29 -29q0 -21 -20.5 -41.5t-43.5 -20.5q-31 0 -31 34zM354 481q0 19 20 38t46 19q29 0 29 -29q0 -21 -20.5 -41.5t-43.5 -20.5q-31 0 -31 34z" />
    <glyph glyph-name="AE" unicode="&#xc6;" horiz-adv-x="877" 
d="M322 327q50 0 111.5 4t126.5 9q-40 17 -56 36t-16 53q0 35 14 73l32 76q0 9 -5 9q-28 0 -207 -260zM257 219q-176 -291 -238 -291q-25 0 -25 31q0 57 64 121q40 40 59 40h4l61 99l-103 1q-47 0 -47 27q0 31 56 71q63 45 131 45q7 0 12 -4l4 -4q0 -6 -20 -12l-52 -16
l88 -2q250 386 326 386q40 0 40 -89q54 30 103.5 45.5t104.5 15.5q63 0 82.5 -16.5t19.5 -63.5q0 -32 -6.5 -41.5t-34.5 -26.5q-63 -38 -83 -49q-12 -7 -30 -16q-6 7 -6 11q0 17 49 63l-28 1q-87 0 -160 -45q-66 -41 -66 -75q0 -57 157 -57q16 0 28.5 1t24.5 2q34 0 34 -17
q0 -6 -7 -23.5t-17.5 -30.5t-30.5 -16.5t-35 -5.5q-119 -25 -202 -86q-75 -55 -75 -100q0 -16 30 -26.5t82 -10.5q67 0 130 27.5t134 85.5q5 -19 6.5 -33.5t1.5 -31.5q0 -52 -27 -78q-48 -46 -119 -73.5t-147 -27.5q-98 0 -143 37t-45 122q0 68 130 154q-14 -2 -62 -8
q-82 -10 -153 -10z" />
    <glyph glyph-name="Oslash" unicode="&#xd8;" horiz-adv-x="586" 
d="M258 49q88 54 149 140q49 69 78 139q26 62 26 98q0 48 -55 48h-18l-28 -63zM171 26q32 82 48 122q26 64 62 147q31 72 78 172q-118 -79 -191 -194q-65 -103 -65 -182q0 -54 68 -65zM236 -28q-11 -34 -17 -56t-6 -35q0 -6 2 -16t2 -12q0 -14 -25.5 -38.5t-46.5 -24.5
q-13 0 -21 12.5t-8 36.5q0 41 31 132q-59 19 -94 73.5t-35 129.5q0 136 107 259q113 130 294 181l67 148q9 21 19 21q19 0 19 -35q0 -21 -9 -51q-5 -18 -24 -67l29 4q30 0 48 -18t18 -45q0 -21 -11 -25q-18 -1 -33 -2.5t-40 -10.5t-53 -26q17 2 32 3.5t24 1.5q82 0 82 -90
q0 -66 -34 -149q-37 -91 -101 -165q-86 -101 -216 -136z" />
    <glyph glyph-name="plusminus" unicode="&#xb1;" horiz-adv-x="833" 
d="M375 589h83v-163h251v-81h-251v-163h-83v163h-251v81h251v163zM124 89h585v-82h-585v82z" />
    <glyph glyph-name="yen" unicode="&#xa5;" horiz-adv-x="567" 
d="M325 184q-18 -53 -43 -109q-44 -100 -48 -116q-4 -33 -6 -45.5t-20 -12.5q-31 0 -60.5 15t-29.5 33q0 22 17 62q39 85 78 171q-36 0 -72 -4t-94 -14q0 26 27 51q36 6 79 11.5t81 5.5q10 32 10 54l-1 14q-27 0 -60 -3.5t-92 -13.5q0 27 26 49q40 9 67 13t54 4
q-7 41 -17.5 77t-25.5 68q-36 -18 -53 -30q-22 -16 -33 -34l39 -5q-18 -6 -37.5 -9.5t-27.5 -3.5q-39 0 -39 81q0 20 9 33.5t31 29.5q36 25 79 43.5t61 18.5q66 0 111 -272q88 110 174 183q72 61 109 72l4 -39q0 -38 -10 -53q-6 -9 -32 -26q-54 -33 -78 -53q-39 -33 -83 -83
q71 0 137 -21q-11 -21 -29 -34q-24 4 -57.5 7.5t-42.5 3.5l-46 -1q-11 -15 -20.5 -32.5t-18.5 -38.5q51 0 95 -7t85 -21q-3 -24 -23 -36q-51 8 -90 12.5t-84 4.5z" />
    <glyph glyph-name="mu" unicode="&#xb5;" horiz-adv-x="590" 
d="M100 528h112l-61 -310q-6 -29 -6 -51q0 -96 89 -96q61 0 95.5 44t53.5 142l53 271h110l-71 -361q-9 -47 -9 -65q0 -32 33 -32l17 1l-16 -78q-14 -4 -33.5 -6t-39.5 -2q-35 0 -52 13q-21 16 -21 55q-42 -69 -124 -69q-76 0 -115 53l-48 -247h-112z" />
    <glyph glyph-name="ordfeminine" unicode="&#xaa;" horiz-adv-x="339" 
d="M224 622q-192 -77 -192 -136q0 -19 13 -19q50 0 179 155zM164 501q-98 -97 -130 -97q-14 0 -37 34.5t-23 65.5q0 48 73 104q54 41 121 64q19 6 45 12.5t34 6.5q13 0 24.5 -12.5t11.5 -22.5q0 -6 -14 -13l-13 -8l13 -24q4 -8 4 -14q0 -3 -39 -61q-19 -28 -19 -46
q0 -16 22 -16q17 0 42 16.5t65 51.5l1 -30q-119 -122 -159 -122q-17 0 -28.5 11.5t-11.5 30.5q0 18 18 69z" />
    <glyph glyph-name="ordmasculine" unicode="&#xba;" horiz-adv-x="269" 
d="M111 475l-1 22q0 37 37 101q-56 -21 -90 -59q-30 -33 -30 -63q0 -27 29 -27q13 0 27 6.5t28 19.5zM149 443q-51 -49 -97 -49q-33 0 -56.5 26.5t-23.5 70.5q0 29 17.5 62t49.5 61q58 50 113 50q22 0 37 -8t15 -17l-4 -4l-9 -12q24 0 24 -33q0 -49 -41 -110q31 0 102 65
l-1 -35q-72 -67 -111 -67h-15z" />
    <glyph glyph-name="ae" unicode="&#xe6;" horiz-adv-x="567" 
d="M305 191q81 36 126 71.5t45 56.5q0 10 -8 10q-28 0 -72 -32q-56 -41 -91 -106zM314 309q-271 -84 -271 -194q0 -27 17 -27q36 0 254 221zM576 151q-149 -166 -251 -166q-52 0 -80 26q-36 34 -36 117q-124 -130 -162 -130q-22 0 -52 50.5t-30 96.5q0 28 25.5 67t72.5 78
q53 43 145 83q84 36 118 36q33 0 33 -24v-40q63 41 122 41q71 0 71 -46q0 -48 -65 -103q-73 -62 -186 -89q0 -35 14.5 -56.5t50.5 -21.5q37 0 89 30q56 33 121 95v-44z" />
    <glyph glyph-name="oslash" unicode="&#xf8;" horiz-adv-x="393" 
d="M403 197l-1 -48q-43 -41 -65 -56q-45 -31 -85 -31q-9 0 -13 1q-26 -35 -65.5 -55t-78.5 -20l-33 -84q-13 -35 -32 -35q-7 0 -15.5 8.5t-8.5 19.5q0 7 1 14t6 21l27 74q-66 41 -66 125q0 76 62.5 140.5t159.5 82.5q34 65 66 100.5t51 35.5q15 0 15 -15q0 -17 -7.5 -42
t-11.5 -27q-10 -6 -19 -11q-18 -13 -33 -37q25 -4 40 -12.5t15 -17.5q-2 -4 -2 -5q-3 -5 -6 -8l-16 -15l21 3q16 0 16 -29q0 -87 -54 -167q20 0 50.5 21t81.5 69zM104 56q68 18 87 47l-1 15q0 39 14 78.5t44 88.5l-47 -9q-48 -98 -97 -220zM63 65q37 97 87 193
q-52 -29 -79.5 -65t-27.5 -68q0 -40 20 -60z" />
    <glyph glyph-name="questiondown" unicode="&#xbf;" horiz-adv-x="383" 
d="M263 118l-32 16q-13 7 -13 14q0 9 8 9q5 -2 8 -2q23 -5 52.5 -9t37 -8.5t7.5 -18.5q0 -60 -52 -97q-57 -41 -162 -41q-124 0 -124 103q0 63 39 129q28 47 103 133q91 105 91 119q-3 13 -3 25q0 18 20 18q14 0 30.5 -22.5t16.5 -54.5q0 -63 -150 -190l-72 -60
q-28 -27 -28 -52q0 -42 81 -42q39 0 74.5 8t67.5 23zM327 674q17 0 35 -20t18 -42q0 -27 -25 -67.5t-37 -40.5q-14 0 -35 31q-12 18 -12 33q0 32 20.5 69t35.5 37z" />
    <glyph glyph-name="exclamdown" unicode="&#xa1;" horiz-adv-x="294" 
d="M189 419q-6 6 -6 10q0 10 13 24t22 14q8 0 29.5 -22.5t21.5 -34.5q0 -14 -27 -72q-33 -72 -94 -174q-109 -181 -128 -181l-16 5l-31 12q-34 14 -34 26q0 7 31 52q57 84 87 129q74 112 132 212zM328 600q0 -35 -16 -75.5t-31 -40.5q-23 0 -42 18t-19 39q0 44 16 77.5
t34 33.5q23 0 40.5 -13t17.5 -39z" />
    <glyph glyph-name="logicalnot" unicode="&#xac;" horiz-adv-x="833" 
d="M124 421h585v-245h-81v164h-504v81z" />
    <glyph glyph-name="florin" unicode="&#x192;" horiz-adv-x="567" 
d="M319 284q-106 -524 -201 -524q-21 0 -51 47q-35 55 -35 116q21 -22 31 -31q6 -6 9 -6q49 0 134 383q-18 -4 -44 -11.5t-58 -20.5q14 59 34 76.5t89 33.5q44 167 124 266q69 86 128 86q16 0 31.5 -38t15.5 -89q0 -66 -21 -96.5t-83 -44.5q21 38 31.5 71.5t10.5 67.5
q0 18 -6 38q-70 -57 -120 -249q51 0 77 -6t26 -26q0 -13 -8 -32.5t-27 -44.5l-10 22q-39 12 -77 12z" />
    <glyph glyph-name="guillemotleft" unicode="&#xab;" horiz-adv-x="498" 
d="M128 162l50 -76q17 -25 17 -35q0 -21 -23 -21q-14 0 -30 16l-66 67q-23 23 -23 46q0 26 36 52l110 79q35 26 47 26t12 -13q0 -9 -9 -20t-26 -27zM308 162l51 -76q17 -25 17 -35q0 -21 -24 -21q-13 0 -29 16l-66 67q-24 24 -24 46q0 26 36 52l110 79q35 26 48 26
q11 0 11 -13q0 -10 -8 -20t-26 -27z" />
    <glyph glyph-name="guillemotright" unicode="&#xbb;" horiz-adv-x="498" 
d="M145 183l-50 76q-17 25 -17 35q0 22 24 22q9 0 15 -4q3 -2 14 -13l66 -67q23 -23 23 -46q0 -26 -36 -52l-110 -79q-34 -25 -47 -25q-11 0 -11 12q0 10 8.5 20t25.5 27zM329 183l-51 76q-17 25 -17 35q0 22 24 22q9 0 15 -4q3 -2 14 -13l66 -67q24 -24 24 -46
q0 -26 -36 -52l-110 -79q-34 -25 -48 -25q-11 0 -11 12q0 10 8.5 20t25.5 27z" />
    <glyph glyph-name="ellipsis" unicode="&#x2026;" horiz-adv-x="1000" 
d="M41 3q0 27 38.5 62.5t63.5 35.5q23 0 23 -25t-32 -60q-35 -39 -66 -39q-27 0 -27 26zM374 3q0 27 38.5 62.5t63.5 35.5q23 0 23 -25t-32 -60q-35 -39 -66 -39q-27 0 -27 26zM708 3q0 27 38.5 62.5t63.5 35.5q23 0 23 -25t-32 -60q-35 -39 -66 -39q-27 0 -27 26z" />
    <glyph glyph-name="nonbreakingspace" unicode="&#xa0;" 
 />
    <glyph glyph-name="Agrave" unicode="&#xc0;" horiz-adv-x="715" 
d="M733 748q0 -7 -9 -7q-24 0 -35 7q-1 1 -20 18q-31 29 -51 60q-16 25 -16 36q0 8 21 8q25 0 29 -1q9 -2 13 -10q20 -37 55 -88q13 -19 13 -23zM516 338l77 234q-76 -70 -136 -135q-46 -49 -95 -110q44 0 79 2.5t75 8.5zM266 204l-36 -46q-180 -226 -245 -226q-21 0 -21 18
q0 33 49 90q55 64 111 81l68 84q-61 0 -84 7t-23 29q0 16 25.5 46.5t50 43t57 17.5t71.5 5q-12 -12 -33 -17.5t-40 -10.5h72q315 361 374 361q13 0 22.5 -11.5t9.5 -30.5q0 -30 -19 -88l-67 -215q61 0 83.5 -4.5t22.5 -14.5q0 -12 -20.5 -40t-50.5 -53q-11 -10 -36.5 -13
t-38.5 -4q-27 -87 -27 -111q0 -25 14 -25q28 0 148 100l1 -34q-151 -164 -221 -164q-54 0 -54 56q0 19 12 61q5 19 38 118q-42 -5 -83.5 -7t-129.5 -2z" />
    <glyph glyph-name="Atilde" unicode="&#xc3;" horiz-adv-x="715" 
d="M597 740q-20 0 -20 23q0 26 24.5 59t52.5 33q24 0 57.5 -25.5t43.5 -25.5q16 0 31 30t29 30q17 0 17 -20q0 -30 -20 -62.5t-45 -32.5q-22 0 -55 24t-45 24q-15 0 -33 -28.5t-37 -28.5zM513 337l77 234q-76 -70 -136 -135q-46 -49 -95 -110q44 0 79 2.5t75 8.5zM263 203
l-36 -46q-180 -226 -245 -226q-21 0 -21 18q0 33 49 90q55 64 111 81l68 84q-61 0 -84 7t-23 29q0 16 25.5 46.5t50 43t57 17.5t71.5 5q-12 -12 -33 -17.5t-40 -10.5h72q315 361 374 361q13 0 22.5 -11.5t9.5 -30.5q0 -30 -19 -88l-67 -215q61 0 83.5 -4.5t22.5 -14.5
q0 -12 -20.5 -40t-50.5 -53q-11 -10 -36.5 -13t-38.5 -4q-27 -87 -27 -111q0 -25 14 -25q28 0 148 100l1 -34q-151 -164 -221 -164q-54 0 -54 56q0 19 12 61q5 19 38 118q-42 -5 -83.5 -7t-129.5 -2z" />
    <glyph glyph-name="Otilde" unicode="&#xd5;" horiz-adv-x="586" 
d="M427 738q-20 0 -20 23q0 26 24.5 59t52.5 33q24 0 57.5 -25.5t43.5 -25.5q16 0 31 30t29 30q17 0 17 -20q0 -30 -20 -62.5t-45 -32.5q-22 0 -55 24t-45 24q-15 0 -33 -28.5t-37 -28.5zM481 524l27 2q87 0 87 -91q0 -88 -47 -190q-54 -117 -141 -190q-103 -86 -229 -86
q-64 0 -110 62t-46 151q0 115 91 233q79 103 195 176q109 69 179 69q19 0 31 -8q8 -5 26 -26q35 -41 35 -60q0 -8 -35 -18t-63 -24zM217 283l-1 39q-47 -50 -77 -125q-26 -65 -26 -110q0 -25 11.5 -38.5t33.5 -13.5q45 0 108 39q71 44 135 123q56 70 89 140q28 60 28 96
q0 43 -37 43q-50 0 -122 -46q-88 -56 -142 -147z" />
    <glyph glyph-name="OE" unicode="&#x152;" horiz-adv-x="905" 
d="M573 307q-60 15 -81 36.5t-21 76.5l2 54q0 39 -36 39q-31 0 -79 -27q-55 -31 -112 -87q-156 -155 -156 -307q0 -108 63 -108q20 0 55 13q43 16 86.5 44.5t66.5 50.5q27 26 44 62q24 49 65 86q37 33 103 67zM398 9q-121 -88 -215 -88q-85 0 -137.5 62.5t-52.5 168.5
q0 230 240 410q67 51 125.5 76t100.5 25q45 0 90 -91q66 56 135.5 83.5t150.5 27.5q61 0 78 -21q13 -16 13 -72q0 -26 -10 -37q-4 -5 -32 -20t-89 -53q-16 -10 -21 -10q-6 0 -6 8q0 17 55 69q-110 0 -195 -50q-74 -43 -74 -81q0 -27 41.5 -38t135.5 -11h25q50 0 50 -19
q0 -26 -15.5 -44.5t-47.5 -27.5q-82 -22 -94 -26q-54 -17 -91 -41q-43 -28 -68 -63.5t-25 -59.5q0 -22 14.5 -32t45.5 -10q70 0 148.5 32t148.5 91q2 -8 3 -19t1 -19q0 -87 -47 -129q-33 -29 -101 -53.5t-138 -24.5q-64 0 -93.5 17.5t-48.5 69.5z" />
    <glyph glyph-name="oe" unicode="&#x153;" horiz-adv-x="544" 
d="M283 191q79 35 127 74q43 35 43 53q0 11 -8 11q-27 0 -71 -32q-56 -41 -91 -106zM184 120v5q0 43 15 82l34 74q0 16 -17 16q-10 0 -41 -18q-39 -23 -73 -57q-69 -69 -69 -129q0 -19 12 -30t30 -11q42 0 109 68zM278 148v-5q0 -34 17.5 -53.5t47.5 -19.5q38 0 90 30
q57 33 121 95v-44q-149 -166 -253 -166q-35 0 -64 16t-40 43q-25 -31 -57.5 -48.5t-62.5 -17.5q-47 0 -80.5 40t-33.5 101q0 49 23.5 97.5t69.5 91.5q80 75 164 75q28 0 51.5 -17t31.5 -41q43 30 80 44.5t76 14.5q71 0 71 -44q0 -47 -66 -103q-74 -62 -186 -89z" />
    <glyph glyph-name="endash" unicode="&#x2013;" 
d="M400 166l-368 2h-12q-17 0 -27 1.5t-10 14.5q0 16 42 48q28 21 55.5 27t70.5 6q75 0 173 -8q50 -5 100 -9q31 0 55 8l39 -13q-36 -43 -118 -77z" />
    <glyph glyph-name="emdash" unicode="&#x2014;" horiz-adv-x="1000" 
d="M0 174v85h1000v-85h-1000z" />
    <glyph glyph-name="quotedblleft" unicode="&#x201c;" horiz-adv-x="312" 
d="M163 576q-2 -3 -26 -43q-10 -16 -18 -16t-8 16q0 13 12 39.5t38 58.5q18 23 35 34.5t35 11.5q25 0 25 -25q0 -22 -23 -55.5t-41 -33.5q-11 0 -29 13zM307 576q-4 -6 -25 -43q-9 -16 -18 -16q-8 0 -8 16q0 13 12 39.5t38 58.5q18 23 35 34.5t35 11.5q25 0 25 -25
q0 -21 -23 -55t-41 -34q-12 0 -30 13z" />
    <glyph glyph-name="quotedblright" unicode="&#x201d;" horiz-adv-x="312" 
d="M163 563l-13 -2q-19 0 -19 21q0 27 30 62t58 35q24 0 24 -25q0 -17 -11 -41t-32 -52q-42 -54 -56 -54q-5 0 -8 3q-1 1 -1 3q0 8 10 21q14 18 18 29zM298 563l-14 -2q-18 0 -18 21q0 27 30 62t57 35q24 0 24 -25q0 -17 -11 -41t-32 -52q-42 -54 -55 -54q-5 0 -8 3
q-1 1 -1 3q0 8 10 21q14 18 18 29z" />
    <glyph glyph-name="quoteleft" unicode="&#x2018;" horiz-adv-x="176" 
d="M169 576q-2 -3 -26 -43q-10 -16 -18 -16t-8 16q0 13 12 39.5t38 58.5q18 23 35 34.5t35 11.5q25 0 25 -26q0 -22 -22.5 -55t-41.5 -33q-11 0 -29 13z" />
    <glyph glyph-name="quoteright" unicode="&#x2019;" horiz-adv-x="176" 
d="M169 563l-13 -2q-19 0 -19 21q0 27 30 62t58 35q24 0 24 -25q0 -17 -11 -41t-32 -52q-42 -54 -56 -54q-5 0 -8 3q-1 1 -1 3q0 8 10 21q14 18 18 29z" />
    <glyph glyph-name="divide" unicode="&#xf7;" horiz-adv-x="833" 
d="M417 551q27 0 47 -20t20 -48q0 -27 -19.5 -46.5t-47.5 -19.5q-29 0 -48 19t-19 47q0 27 19.5 47.5t47.5 20.5zM124 339h585v-81h-585v81zM417 179q28 0 47.5 -19.5t19.5 -47.5q0 -27 -19.5 -46.5t-47.5 -19.5q-29 0 -48 19t-19 47q0 27 20 47t47 20z" />
    <glyph glyph-name="ydieresis" unicode="&#xff;" horiz-adv-x="410" 
d="M198 114q-130 -124 -171 -124q-19 0 -42 42t-23 86q0 68 68 145q38 43 79 74q35 26 43 26q14 0 30 -15t16 -26q0 -18 -31 -55q-36 -44 -100 -96q-36 -42 -36 -68q0 -11 4 -11q9 0 46 24q46 30 106 80q77 65 155 145q31 -6 31 -46q0 -25 -53 -104q-88 -132 -134 -210
q124 95 232 216v-45q-104 -115 -201 -229q-59 -70 -117 -140q-41 -48 -47 -48q-7 0 -16.5 25t-9.5 49q0 19 40 94q49 93 131 211zM165 481q0 19 20 38t46 19q29 0 29 -29q0 -21 -20.5 -41.5t-43.5 -20.5q-31 0 -31 34zM300 481q0 19 20 38t46 19q29 0 29 -29
q0 -21 -20.5 -41.5t-43.5 -20.5q-31 0 -31 34z" />
    <glyph glyph-name="Ydieresis" unicode="&#x178;" horiz-adv-x="733" 
d="M571 328q-97 -102 -190 -185q-75 -66 -134 -107q-51 -35 -66 -35q-25 0 -45 21t-20 46q0 31 36 98q42 79 120 173q64 75 87 103q62 74 62 98q-3 4 -5 4q-25 0 -200 -104q-125 -74 -156 -74q-8 0 -8 16q0 31 17 79t39.5 68t57 42.5t84.5 48.5q71 37 127.5 55.5t104.5 18.5
q73 0 73 -48q0 -33 -34 -90.5t-96 -137.5q-155 -197 -155 -227q0 -11 8 -11q62 0 238 185q165 173 190 173q12 0 29 -26.5t17 -42.5q0 -13 -42 -73q-74 -105 -108 -157q-82 -125 -149 -255q65 47 126 72q46 19 69 19q18 0 18 -12q0 -15 -27 -40q-83 -68 -149 -125
q-52 -46 -130 -127q-46 -48 -63 -48q-19 0 -31.5 13.5t-12.5 36.5q0 62 79 199t239 356zM510 790q0 19 20 38t46 19q29 0 29 -29q0 -21 -20.5 -41.5t-43.5 -20.5q-31 0 -31 34zM645 790q0 19 20 38t46 19q29 0 29 -29q0 -21 -20.5 -41.5t-43.5 -20.5q-31 0 -31 34z" />
    <glyph glyph-name="fraction" unicode="&#x2215;" horiz-adv-x="881" 
d="M318 -10l-2 -35l-13 -23q-7 -11 -8 -13q-4 -6 -9 -10q-8 -10 -20 -13q-12 0 -29 12.5t-21 20t-4 20.5q0 28 14 59q5 13 14 35q6 14 14 31q49 104 120 219q76 124 153 223q61 75 100 109q29 28 54 28q22 0 22 -22q0 -16 -19 -45l-18 -24l-42 -55q-61 -79 -142 -210
q-92 -149 -135 -244z" />
    <glyph glyph-name="currency" unicode="&#xa4;" horiz-adv-x="606" 
d="M82 698l99 -99q53 40 122 40q70 0 123 -40l99 99l46 -45l-100 -100q39 -53 39 -121t-39 -121l100 -100l-46 -45l-99 100q-55 -40 -122 -40q-70 0 -123 40l-99 -100l-45 45l99 100q-39 53 -39 121t39 121l-99 100zM304 574q-58 0 -100 -42t-42 -100q0 -59 41 -100t101 -41
t101 41t41 100q0 58 -41 100t-101 42z" />
    <glyph glyph-name="guilsinglleft" unicode="&#x2039;" horiz-adv-x="310" 
d="M128 162l50 -76q17 -25 17 -35q0 -21 -23 -21q-14 0 -30 16l-66 67q-23 23 -23 46q0 26 36 52l110 79q35 26 47 26t12 -13q0 -9 -9 -20t-26 -27z" />
    <glyph glyph-name="guilsinglright" unicode="&#x203a;" horiz-adv-x="310" 
d="M145 183l-50 76q-17 25 -17 35q0 22 24 22q9 0 15 -4q3 -2 14 -13l66 -67q23 -23 23 -46q0 -26 -36 -52l-110 -79q-34 -25 -47 -25q-11 0 -11 12q0 10 8.5 20t25.5 27z" />
    <glyph glyph-name="fi" unicode="&#xf001;" horiz-adv-x="580" 
d="M43 22q-51 -89 -51 -165q0 -30 12 -65q36 13 67 71t31 117l-1 24q-32 7 -58 18zM587 195l1 -44q-131 -162 -209 -162q-39 0 -63.5 30.5t-24.5 85.5q-30 -31 -56.5 -52.5t-50.5 -32.5l1 -19q0 -95 -84 -196q-40 -49 -85 -79q-38 -26 -58 -26q-21 0 -37 35.5t-16 90.5
q0 47 20 105.5t64 133.5q-23 24 -23 56q0 78 65 78l22 -1q19 26 36 54q24 41 37 63q142 306 204 306q20 0 20 -37q0 -60 -32 -123q-23 -45 -79 -120q-32 -44 -64.5 -89.5t-66.5 -103.5q35 -32 58 -76q23 12 48 29q35 24 79 60q19 80 78.5 143.5t106.5 63.5q33 0 33 -28
t-32 -72.5t-99 -101.5q-5 -20 -5 -33q0 -48 48 -48q24 0 64.5 26.5t99.5 83.5zM488 425q0 33 26.5 61.5t55.5 28.5q31 0 31 -33q0 -28 -26 -59.5t-53 -31.5q-15 0 -24.5 9.5t-9.5 24.5z" />
    <glyph glyph-name="fl" unicode="&#xf002;" horiz-adv-x="595" 
d="M43 22q-51 -89 -51 -165q0 -30 12 -65q36 13 67 71t31 117l-1 24q-32 7 -58 18zM601 195l1 -43q-161 -172 -213 -172q-75 0 -95 128q-52 -60 -110 -88l1 -19q0 -95 -84 -196q-40 -49 -85 -79q-38 -26 -58 -26q-21 0 -37 35.5t-16 90.5q0 47 20 105.5t64 133.5
q-23 24 -23 56q0 78 65 78l22 -1q19 26 36 54q24 41 37 63q142 306 204 306q20 0 20 -37q0 -60 -32 -123q-23 -45 -79 -120q-32 -44 -64.5 -89.5t-66.5 -103.5q35 -32 58 -76q15 7 47 29q38 25 82 60q12 63 49.5 142.5t96 158.5t118.5 131q53 46 76 46q20 0 20 -35
q0 -100 -66 -208q-70 -114 -198 -210v-20q0 -92 50 -92q30 0 160 121zM411 263q64 52 109.5 124.5t72.5 164.5q-131 -141 -182 -289z" />
    <glyph glyph-name="daggerdbl" unicode="&#x2021;" horiz-adv-x="551" 
d="M188 53q-79 -225 -81 -225q-12 0 -45 38q-20 23 -20 39q0 34 9 60.5t23 34.5l10 41l-59 -5l-34 -2q-19 0 -35.5 22.5t-16.5 37.5q0 10 49.5 22t127.5 12q15 43 49 119q53 119 65 146l-45 -4q-30 0 -71 30q-35 26 -35 33q0 16 39 16q1 0 19.5 -2.5t31.5 -2.5q14 0 47 3
t53 3q55 105 103 166q43 54 64 54q19 0 19 -61q0 -11 -7.5 -23t-15.5 -24l-60 -107l55 3q13 0 23.5 -7t17 -11.5t27.5 -17.5t21 -22q0 -19 -38 -19q-11 0 -36.5 1.5t-30.5 1.5l-80 -4q-55 -105 -110 -260l81 3l42 1q24 0 44.5 -24.5t20.5 -45.5q0 -11 -8.5 -14t-32.5 -3
q-10 0 -55 4t-61 4q-17 0 -32 -2t-32 -9z" />
    <glyph glyph-name="periodcentered" unicode="&#xb7;" horiz-adv-x="273" 
d="M36 380q0 42 29 71t71 29t71 -29t29 -71t-29 -71t-71 -29t-71 29t-29 71z" />
    <glyph glyph-name="periodcentered" unicode="&#x2219;" horiz-adv-x="273" 
d="M36 380q0 42 29 71t71 29t71 -29t29 -71t-29 -71t-71 -29t-71 29t-29 71z" />
    <glyph glyph-name="quotesinglbase" unicode="&#x201a;" horiz-adv-x="176" 
d="M12 -16l-14 -3q-19 0 -19 21q0 27 30 62t58 35q24 0 24 -24q0 -17 -10.5 -41.5t-32.5 -52.5q-42 -54 -56 -54q-4 0 -8 6q0 6 6 15q19 28 22 36z" />
    <glyph glyph-name="quotedblbase" unicode="&#x201e;" horiz-adv-x="312" 
d="M12 -16l-14 -3q-19 0 -19 21q0 27 30 62t58 35q24 0 24 -24q0 -17 -10.5 -41.5t-32.5 -52.5q-42 -54 -56 -54q-4 0 -8 6q0 6 6 15q19 28 22 36zM146 -16l-13 -3q-19 0 -19 21q0 27 30 62t58 35q24 0 24 -24q0 -18 -10.5 -40.5t-33.5 -53.5q-42 -54 -55 -54q-5 0 -8 3
q-1 2 -1 3q0 6 6 15q19 28 22 36z" />
    <glyph glyph-name="perthousand" unicode="&#x2030;" horiz-adv-x="856" 
d="M322 622h5q38 0 38 -46q0 -31 -13.5 -66t-39.5 -68q-72 -90 -134 -90q-38 0 -63.5 28.5t-25.5 73.5q0 89 80 158q63 56 113 56q19 0 30.5 -9.5t11.5 -26.5zM253 565l6 32q-48 -34 -76 -78q-24 -38 -24 -69q0 -19 18 -19q9 0 30 15q25 18 50 47.5t41 57.5q13 23 13 31
q0 14 -12 14q-5 0 -18 -8t-28 -23zM68 -61q-19 0 -32.5 24.5t-13.5 51.5q0 23 55 99q66 91 181 209q259 265 317 265q16 0 16 -17q0 -30 -27 -63q-6 -7 -56 -56q-95 -93 -141 -141q-86 -90 -149 -167q-79 -97 -150 -205zM482 208q32 -15 32 -52q0 -26 -13.5 -62.5t-40.5 -73
t-60.5 -57.5t-62.5 -21q-35 0 -57.5 29.5t-22.5 79.5q0 84 82 155q54 48 94 48q22 0 35.5 -12.5t13.5 -33.5zM461 200q-38 -8 -73 -47q-30 -32 -47.5 -65t-17.5 -47q0 -21 19 -21q26 0 73 67q22 32 34 60t12 53zM775 208q32 -15 32 -52q0 -26 -13.5 -62.5t-40.5 -73
t-60.5 -57.5t-62.5 -21q-35 0 -57.5 29.5t-22.5 79.5q0 84 82 155q54 48 94 48q22 0 35.5 -12.5t13.5 -33.5zM753 200q-37 -8 -72 -47q-30 -32 -47.5 -65t-17.5 -47q0 -21 18 -21q25 0 64 52q45 59 55 128z" />
    <glyph glyph-name="Acircumflex" unicode="&#xc2;" horiz-adv-x="715" 
d="M717 814l-82 -60q-22 -13 -42 -13t-20 12q0 5 17 20l97 78q15 12 25.5 17t33.5 5q38 0 38 -110q0 -10 -4 -18q-1 -2 -5 -6q-11 0 -21.5 0.5t-14.5 7.5l-4 22q-5 21 -18 45zM516 338l77 234q-76 -70 -136 -135q-46 -49 -95 -110q44 0 79 2.5t75 8.5zM266 204l-36 -46
q-180 -226 -245 -226q-21 0 -21 18q0 33 49 90q55 64 111 81l68 84q-61 0 -84 7t-23 29q0 16 25.5 46.5t50 43t57 17.5t71.5 5q-12 -12 -33 -17.5t-40 -10.5h72q315 361 374 361q13 0 22.5 -11.5t9.5 -30.5q0 -30 -19 -88l-67 -215q61 0 83.5 -4.5t22.5 -14.5
q0 -12 -20.5 -40t-50.5 -53q-11 -10 -36.5 -13t-38.5 -4q-27 -87 -27 -111q0 -25 14 -25q28 0 148 100l1 -34q-151 -164 -221 -164q-54 0 -54 56q0 19 12 61q5 19 38 118q-42 -5 -83.5 -7t-129.5 -2z" />
    <glyph glyph-name="Ecircumflex" unicode="&#xca;" horiz-adv-x="661" 
d="M598 814q-42 -30 -83 -60q-22 -13 -42 -13t-20 12q0 5 18 20l96 78q14 11 25.5 16.5t33.5 5.5q38 0 38 -110q0 -10 -4 -18q-1 -2 -4 -6q-33 0 -36 8l-4 22q-5 21 -18 45zM596 168l3 -36q0 -123 -149 -195q-120 -58 -253 -58q-97 0 -148.5 38.5t-51.5 108.5q0 89 97 164
q104 80 285 114q-274 0 -274 133q0 91 119 170q61 40 141.5 62t174.5 22q52 0 91 -7.5t51.5 -18.5t12.5 -40v-23q0 -32 -9 -43.5t-37 -25.5l-152 -73q-4 0 -6 3q-1 1 -1 2q0 27 75 74l-43 1q-65 0 -131.5 -17t-123.5 -49.5t-57 -57.5q0 -42 188 -42q178 0 178 -32
q0 -12 -12 -33t-32 -39q-13 -12 -44.5 -16.5t-52.5 -8.5q-167 -33 -261 -99q-70 -49 -70 -86q0 -40 102 -40q100 0 195 38q79 32 195 110z" />
    <glyph glyph-name="Aacute" unicode="&#xc1;" horiz-adv-x="715" 
d="M700 743q-27 0 -27 9q14 19 31.5 43t32.5 55q8 15 15 18t36 3q22 0 22 -11q0 -15 -39 -62q-23 -26 -29 -32q-23 -23 -42 -23zM516 338l77 234q-76 -70 -136 -135q-46 -49 -95 -110q44 0 79 2.5t75 8.5zM266 204l-36 -46q-180 -226 -245 -226q-21 0 -21 18q0 33 49 90
q55 64 111 81l68 84q-61 0 -84 7t-23 29q0 16 25.5 46.5t50 43t57 17.5t71.5 5q-12 -12 -33 -17.5t-40 -10.5h72q315 361 374 361q13 0 22.5 -11.5t9.5 -30.5q0 -30 -19 -88l-67 -215q61 0 83.5 -4.5t22.5 -14.5q0 -12 -20.5 -40t-50.5 -53q-11 -10 -36.5 -13t-38.5 -4
q-27 -87 -27 -111q0 -25 14 -25q28 0 148 100l1 -34q-151 -164 -221 -164q-54 0 -54 56q0 19 12 61q5 19 38 118q-42 -5 -83.5 -7t-129.5 -2z" />
    <glyph glyph-name="Edieresis" unicode="&#xcb;" horiz-adv-x="661" 
d="M596 168l3 -36q0 -123 -149 -195q-120 -58 -253 -58q-97 0 -148.5 38.5t-51.5 108.5q0 89 97 164q104 80 285 114q-274 0 -274 133q0 91 119 170q61 40 141.5 62t174.5 22q52 0 91 -7.5t51.5 -18.5t12.5 -40v-23q0 -32 -9 -43.5t-37 -25.5l-152 -73q-4 0 -6 3q-1 1 -1 2
q0 27 75 74l-43 1q-65 0 -131.5 -17t-123.5 -49.5t-57 -57.5q0 -42 188 -42q178 0 178 -32q0 -12 -12 -33t-32 -39q-13 -12 -44.5 -16.5t-52.5 -8.5q-167 -33 -261 -99q-70 -49 -70 -86q0 -40 102 -40q100 0 195 38q79 32 195 110zM477 792q0 19 20 38t46 19q29 0 29 -29
q0 -21 -20.5 -41.5t-43.5 -20.5q-31 0 -31 34zM612 792q0 19 20 38t46 19q29 0 29 -29q0 -21 -20.5 -41.5t-43.5 -20.5q-31 0 -31 34z" />
    <glyph glyph-name="Egrave" unicode="&#xc8;" horiz-adv-x="661" 
d="M614 748q0 -7 -10 -7q-22 0 -33 7q-5 3 -21 18q-30 27 -51 60q-17 26 -17 36q0 8 21 8q25 0 29 -1q9 -2 13 -10q19 -37 47 -76q22 -31 22 -35zM596 168l3 -36q0 -123 -149 -195q-120 -58 -253 -58q-97 0 -148.5 38.5t-51.5 108.5q0 89 97 164q104 80 285 114
q-274 0 -274 133q0 91 119 170q61 40 141.5 62t174.5 22q52 0 91 -7.5t51.5 -18.5t12.5 -40v-23q0 -32 -9 -43.5t-37 -25.5l-152 -73q-4 0 -6 3q-1 1 -1 2q0 27 75 74l-43 1q-65 0 -131.5 -17t-123.5 -49.5t-57 -57.5q0 -42 188 -42q178 0 178 -32q0 -12 -12 -33t-32 -39
q-13 -12 -44.5 -16.5t-52.5 -8.5q-167 -33 -261 -99q-70 -49 -70 -86q0 -40 102 -40q100 0 195 38q79 32 195 110z" />
    <glyph glyph-name="Iacute" unicode="&#xcd;" horiz-adv-x="477" 
d="M495 743q-26 0 -26 9q14 19 31.5 43t32.5 55q7 15 13.5 18t36.5 3q21 0 21 -11q0 -18 -38 -62q-23 -26 -29 -32q-23 -23 -42 -23zM296 70q2 -7 2 -19q0 -20 -27.5 -54.5t-44.5 -34.5q-13 0 -31.5 19.5t-18.5 30.5q0 17 48 88q83 123 120 186q45 76 60 104q31 56 44 92
q17 47 17 88q-91 -22 -162 -75t-108 -125q33 12 45 12q18 0 18 -13q0 -9 -50 -44q-19 -16 -26 -21q-19 -15 -28 -15q-21 0 -51.5 31.5t-30.5 53.5q0 21 21 63q26 53 65 93q66 68 159 113q82 39 133 39q43 0 68.5 -24.5t25.5 -70.5q0 -86 -62 -217t-186 -300z" />
    <glyph glyph-name="Icircumflex" unicode="&#xce;" horiz-adv-x="477" 
d="M513 814q-42 -30 -83 -60q-22 -13 -42 -13t-20 12q0 5 18 20l96 78q14 11 25.5 16.5t33.5 5.5q38 0 38 -110q0 -10 -4 -18q-1 -2 -4 -6q-33 0 -36 8l-4 22q-5 21 -18 45zM296 70q2 -7 2 -19q0 -20 -27.5 -54.5t-44.5 -34.5q-13 0 -31.5 19.5t-18.5 30.5q0 17 48 88
q83 123 120 186q45 76 60 104q31 56 44 92q17 47 17 88q-91 -22 -162 -75t-108 -125q33 12 45 12q18 0 18 -13q0 -9 -50 -44q-19 -16 -26 -21q-19 -15 -28 -15q-21 0 -51.5 31.5t-30.5 53.5q0 21 21 63q26 53 65 93q66 68 159 113q82 39 133 39q43 0 68.5 -24.5t25.5 -70.5
q0 -86 -62 -217t-186 -300z" />
    <glyph glyph-name="Idieresis" unicode="&#xcf;" horiz-adv-x="477" 
d="M296 70q2 -7 2 -19q0 -20 -27.5 -54.5t-44.5 -34.5q-13 0 -31.5 19.5t-18.5 30.5q0 17 48 88q83 123 120 186q45 76 60 104q31 56 44 92q17 47 17 88q-91 -22 -162 -75t-108 -125q33 12 45 12q18 0 18 -13q0 -9 -50 -44q-19 -16 -26 -21q-19 -15 -28 -15
q-21 0 -51.5 31.5t-30.5 53.5q0 21 21 63q26 53 65 93q66 68 159 113q82 39 133 39q43 0 68.5 -24.5t25.5 -70.5q0 -86 -62 -217t-186 -300zM389 790q0 19 20 38t46 19q29 0 29 -29q0 -21 -20.5 -41.5t-43.5 -20.5q-31 0 -31 34zM524 790q0 19 20 38t46 19q29 0 29 -29
q0 -21 -20.5 -41.5t-43.5 -20.5q-31 0 -31 34z" />
    <glyph glyph-name="Igrave" unicode="&#xcc;" horiz-adv-x="477" 
d="M529 748q0 -7 -10 -7q-22 0 -33 7q-5 3 -21 18q-31 29 -52 60q-17 26 -17 36q0 8 22 8q25 0 29 -1q9 -2 13 -10q19 -37 47 -76q22 -31 22 -35zM296 70q2 -7 2 -19q0 -20 -27.5 -54.5t-44.5 -34.5q-13 0 -31.5 19.5t-18.5 30.5q0 17 48 88q83 123 120 186q45 76 60 104
q31 56 44 92q17 47 17 88q-91 -22 -162 -75t-108 -125q33 12 45 12q18 0 18 -13q0 -9 -50 -44q-19 -16 -26 -21q-19 -15 -28 -15q-21 0 -51.5 31.5t-30.5 53.5q0 21 21 63q26 53 65 93q66 68 159 113q82 39 133 39q43 0 68.5 -24.5t25.5 -70.5q0 -86 -62 -217t-186 -300z
" />
    <glyph glyph-name="Oacute" unicode="&#xd3;" horiz-adv-x="586" 
d="M529 743q-26 0 -26 9q14 19 31.5 43t32.5 55q8 15 14.5 18t35.5 3q22 0 22 -11q0 -17 -39 -62q-23 -26 -29 -32q-23 -23 -42 -23zM478 524l27 2q87 0 87 -91q0 -88 -47 -190q-54 -117 -141 -190q-103 -86 -229 -86q-64 0 -110 62t-46 151q0 115 91 233q79 103 195 176
q109 69 179 69q19 0 31 -8q8 -5 26 -26q35 -41 35 -60q0 -8 -35 -18t-63 -24zM214 283l-1 39q-47 -50 -77 -125q-26 -65 -26 -110q0 -25 11.5 -38.5t33.5 -13.5q45 0 108 39q71 44 135 123q56 70 89 140q28 60 28 96q0 43 -37 43q-50 0 -122 -46q-88 -56 -142 -147z" />
    <glyph glyph-name="Ocircumflex" unicode="&#xd4;" horiz-adv-x="586" 
d="M547 814q-42 -30 -83 -60q-22 -13 -42 -13t-20 12q0 5 18 20l96 78q14 11 25.5 16.5t33.5 5.5q38 0 38 -110q0 -10 -4 -18q-1 -2 -4 -6q-33 0 -36 8l-4 22q-5 21 -18 45zM478 524l27 2q87 0 87 -91q0 -88 -47 -190q-54 -117 -141 -190q-103 -86 -229 -86q-64 0 -110 62
t-46 151q0 115 91 233q79 103 195 176q109 69 179 69q19 0 31 -8q8 -5 26 -26q35 -41 35 -60q0 -8 -35 -18t-63 -24zM214 283l-1 39q-47 -50 -77 -125q-26 -65 -26 -110q0 -25 11.5 -38.5t33.5 -13.5q45 0 108 39q71 44 135 123q56 70 89 140q28 60 28 96q0 43 -37 43
q-50 0 -122 -46q-88 -56 -142 -147z" />
    <glyph glyph-name="apple" unicode="&#xf000;" horiz-adv-x="1639" 
d="M1623 152h-248q0 -36 17 -51q13 -12 36 -12q17 0 32 8.5t31 18.5h116q-40 -59 -81 -82.5t-109 -23.5t-98.5 17t-64.5 68q-5 -13 -9.5 -25t-4.5 -24q0 -16 10 -30h-111q-31 0 -43 11q-15 14 -15 52q0 13 13 100q8 54 13 78h-63q-8 -17 -27 -119q-14 -77 -20 -122h-131
l36 210h-10l-105 -210h-126v168h-27l-68 -168h-126q-6 28 -11 62t-5 59h-16q-19 -69 -87 -103q-57 -29 -139 -29q-83 0 -128 41t-45 112h142q6 -27 22 -37.5t41 -10.5q18 0 37.5 10.5t19.5 26.5q0 18 -110 49t-110 114t72 129q62 39 148 39q74 0 116 -32q48 -37 48 -110
h-137q-10 23 -22.5 30t-35.5 7q-16 0 -29 -8.5t-13 -22.5q0 -17 33 -27q120 -37 169 -68v32q0 10 3 26h111q0 -13 9 -66t17 -76l58 142h131v-147h21q5 19 20 53t22 46h173q7 14 11.5 31.5t4.5 47.5h-58q34 95 49 107q30 25 156 25v-57.5v-26.5h-31q-18 0 -25 -7t-17 -35h73
q3 23 5 36q6 36 12 58h126q-7 -30 -9 -45q-5 -37 -7 -55h63l-6 -31q43 25 62 32q39 15 91 15q85 0 121.5 -43.5t36.5 -156.5zM1497 221q0 28 -12 37.5t-30 9.5q-25 0 -39 -16q-14 -22 -20 -31h101zM1271 252h-27q-3 -17 -4 -28q-12 -73 -12 -91q0 -9 1 -12h15v37q0 16 4 29
q11 30 23 65z" />
    <glyph glyph-name="Ograve" unicode="&#xd2;" horiz-adv-x="586" 
d="M563 748q0 -7 -10 -7q-22 0 -33 7q-5 3 -21 18q-30 27 -51 60q-17 26 -17 36q0 8 21 8q25 0 29 -1q9 -2 13 -10q19 -37 47 -76q22 -31 22 -35zM478 524l27 2q87 0 87 -91q0 -88 -47 -190q-54 -117 -141 -190q-103 -86 -229 -86q-64 0 -110 62t-46 151q0 115 91 233
q79 103 195 176q109 69 179 69q19 0 31 -8q8 -5 26 -26q35 -41 35 -60q0 -8 -35 -18t-63 -24zM214 283l-1 39q-47 -50 -77 -125q-26 -65 -26 -110q0 -25 11.5 -38.5t33.5 -13.5q45 0 108 39q71 44 135 123q56 70 89 140q28 60 28 96q0 43 -37 43q-50 0 -122 -46
q-88 -56 -142 -147z" />
    <glyph glyph-name="Uacute" unicode="&#xda;" horiz-adv-x="806" 
d="M733 743q-25 0 -25 9q13 19 31.5 44.5t31.5 53.5q8 15 15 18t36 3q22 0 22 -11q0 -17 -39 -62q-23 -26 -29 -32q-23 -23 -43 -23zM644 390q-356 -409 -425 -409q-28 0 -52 29q-27 32 -27 74q0 51 38 117q31 55 105 149q41 51 83 105t61 89q-66 -25 -147 -70
q-56 -32 -110.5 -61.5t-83.5 -29.5q-15 0 -23.5 7.5t-8.5 18.5q0 16 29 79q33 73 87 109q61 42 155 70q55 17 102 25t63 8q32 0 45.5 -16.5t13.5 -53.5q0 -64 -34 -120q-3 -5 -84 -115q-156 -212 -156 -257q0 -8 6 -8q39 0 293 272q15 16 162 182q58 65 76 65q13 0 24.5 -20
t11.5 -52q0 -28 -116 -205q-130 -199 -130 -268q0 -38 31 -38q22 0 65.5 28t101.5 83l2 -45q-54 -72 -126 -119q-65 -42 -108 -42q-34 0 -54 24t-20 69q0 54 39 136q35 74 111 190z" />
    <glyph glyph-name="Ucircumflex" unicode="&#xdb;" horiz-adv-x="806" 
d="M751 814l-82 -60q-22 -13 -43 -13q-20 0 -20 12q0 3 5 8q3 3 14 12l96 78q14 11 25.5 16.5t33.5 5.5q37 0 37 -110q0 -10 -3 -18q-1 -2 -4 -6q-32 0 -37 8q-3 15 -6 31q-5 16 -16 36zM644 390q-356 -409 -425 -409q-28 0 -52 29q-27 32 -27 74q0 51 38 117q31 55 105 149
q41 51 83 105t61 89q-66 -25 -147 -70q-56 -32 -110.5 -61.5t-83.5 -29.5q-15 0 -23.5 7.5t-8.5 18.5q0 16 29 79q33 73 87 109q61 42 155 70q55 17 102 25t63 8q32 0 45.5 -16.5t13.5 -53.5q0 -64 -34 -120q-3 -5 -84 -115q-156 -212 -156 -257q0 -8 6 -8q39 0 293 272
q15 16 162 182q58 65 76 65q13 0 24.5 -20t11.5 -52q0 -28 -116 -205q-130 -199 -130 -268q0 -38 31 -38q22 0 65.5 28t101.5 83l2 -45q-54 -72 -126 -119q-65 -42 -108 -42q-34 0 -54 24t-20 69q0 54 39 136q35 74 111 190z" />
    <glyph glyph-name="Ugrave" unicode="&#xd9;" horiz-adv-x="806" 
d="M768 748q0 -7 -10 -7q-20 0 -27 3.5t-27 21.5q-30 27 -51 60q-17 26 -17 36q0 8 21 8q12 0 24 -0.5t18 -10.5q19 -37 47 -76q22 -31 22 -35zM644 390q-356 -409 -425 -409q-28 0 -52 29q-27 32 -27 74q0 51 38 117q31 55 105 149q41 51 83 105t61 89q-66 -25 -147 -70
q-56 -32 -110.5 -61.5t-83.5 -29.5q-15 0 -23.5 7.5t-8.5 18.5q0 16 29 79q33 73 87 109q61 42 155 70q55 17 102 25t63 8q32 0 45.5 -16.5t13.5 -53.5q0 -64 -34 -120q-3 -5 -84 -115q-156 -212 -156 -257q0 -8 6 -8q39 0 293 272q15 16 162 182q58 65 76 65q13 0 24.5 -20
t11.5 -52q0 -28 -116 -205q-130 -199 -130 -268q0 -38 31 -38q22 0 65.5 28t101.5 83l2 -45q-54 -72 -126 -119q-65 -42 -108 -42q-34 0 -54 24t-20 69q0 54 39 136q35 74 111 190z" />
    <glyph glyph-name="dotlessi" unicode="&#x131;" horiz-adv-x="255" 
d="M262 195l1 -44q-131 -162 -209 -162q-41 0 -64.5 34.5t-23.5 97.5q0 56 23 102t73 95.5t91 49.5q33 0 33 -28t-32 -72.5t-99 -101.5q-5 -20 -5 -33q0 -48 48 -48q24 0 64.5 26.5t99.5 83.5z" />
    <glyph glyph-name="circumflex" unicode="&#x2c6;" 
d="M342 507q-42 -30 -83 -60q-22 -13 -42 -13t-20 12q0 5 18 20l96 78q14 11 25.5 16.5t33.5 5.5q38 0 38 -110q0 -10 -4 -18q-1 -2 -4 -6q-33 0 -36 8l-4 22q-5 21 -18 45z" />
    <glyph glyph-name="tilde" unicode="&#x2dc;" 
d="M223 432q-20 0 -20 23q0 26 24.5 59t52.5 33q24 0 57.5 -25.5t43.5 -25.5q16 0 31 30t29 30q17 0 17 -20q0 -30 -20 -62.5t-45 -32.5q-22 0 -55 24t-45 24q-15 0 -33 -28.5t-37 -28.5z" />
    <glyph glyph-name="macron" unicode="&#xaf;" 
d="M456 532q0 -35 -23.5 -49.5t-71.5 -14.5h-78h-6q-32 0 -42 3.5t-10 16.5q0 25 12 32t48 7q28 0 51 -2q81 -7 87 -7q22 0 33 14z" />
    <glyph glyph-name="breve" unicode="&#x2d8;" 
d="M328 438q-39 0 -66 26t-27 61q0 14 6 22t15 8q13 0 16 -12t6 -25q13 -35 45 -35q38 0 76 45q8 10 16 21q8 7 31 7q16 0 16 -16q0 -22 -41 -59q-47 -43 -93 -43z" />
    <glyph glyph-name="dotaccent" unicode="&#x2d9;" 
d="M306 481q0 19 20 38t46 19q28 0 28 -29q0 -22 -20 -42t-44 -20q-30 0 -30 34z" />
    <glyph glyph-name="ring" unicode="&#x2da;" 
d="M416 585q20 -24 20 -59q0 -42 -32.5 -70t-74.5 -28q-32 0 -54 24t-22 63q0 44 41.5 76.5t92.5 32.5q33 0 33 -22zM389 564l-21 2q-25 0 -50 -20.5t-25 -44.5q0 -33 19 -33q25 0 51.5 25.5t26.5 57.5z" />
    <glyph glyph-name="cedilla" unicode="&#xb8;" 
d="M153 15l50 9l-64 -90q64 -6 64 -52q0 -19 -20 -48q-23 -33 -56 -57q-46 -32 -111 -32q-58 0 -58 38q0 14 12 34q75 27 97 27q4 0 7 -2q1 0 3 -2q0 -6 -9 -12t-19 -13q14 -9 26 -9q30 0 54.5 14.5t24.5 30.5q0 13 -22.5 23.5t-61.5 10.5q23 44 41.5 73.5t41.5 56.5z" />
    <glyph glyph-name="hungarumlaut" unicode="&#x2ba;" 
d="M359 436q-11 0 -20.5 -0.5t-17.5 -0.5q-16 0 -16 3q25 21 51 48t41 57q8 15 14.5 18t35.5 3q22 0 22 -11q0 -17 -39 -62q-23 -26 -29 -32q-23 -23 -42 -23zM263 436q-27 0 -27 9q14 19 31.5 43t32.5 55q8 15 15 18t36 3q22 0 22 -11q0 -16 -40 -62q-26 -31 -37 -40
q-17 -15 -33 -15z" />
    <glyph glyph-name="ogonek" unicode="&#x2db;" 
d="M324 1q-31 -16 -63 -55q-27 -34 -27 -63q0 -11 3 -19.5t21.5 -17.5t41.5 -9q29 0 55.5 12t47.5 40q0 -61 -38 -91q-33 -26 -85 -26q-39 0 -71 14t-45 37q-8 18 -8 36q0 35 27 69q32 40 93 73h48z" />
    <glyph glyph-name="caron" unicode="&#x2c7;" 
d="M333 490q41 30 83 60q22 13 42 13q19 0 19 -11q0 -6 -17 -20l-97 -79q-16 -13 -25.5 -17t-32.5 -4q-38 0 -38 110q0 10 3 17q1 2 4 6q34 0 37 -8q2 -11 5.5 -27t16.5 -40z" />
    <glyph glyph-name="Lslash" unicode="&#x141;" horiz-adv-x="512" 
d="M90 172l-80 -14l-12 70l159 28q117 156 216 257q77 79 138 118q45 29 69 29q13 -4 22 -17.5t9 -39.5q0 -34 -19 -80q-28 -69 -104 -179l14 -16q-33 -33 -58 -53q-50 -40 -75 -40q-15 0 -15 30q0 19 5 39t14 34q55 78 87.5 127t41.5 78q-64 -57 -160 -169
q-88 -103 -88 -109q4 5 8 9l68 12l12 -69l-152 -27l-65 -67q41 -5 141 -34q71 -20 162 -50q34 -12 68 -23q-55 -65 -76.5 -81.5t-56.5 -16.5q-18 0 -104 21q-223 54 -277 63q-15 -8 -35 -16q-8 -3 -17 -7q-3 -1 -22.5 -4t-31.5 -3q-34 0 -34 12q0 48 56.5 91.5t154.5 53.5z
" />
    <glyph glyph-name="lslash" unicode="&#x142;" horiz-adv-x="426" 
d="M181 264q60 53 88 91q56 76 94 198q-73 -82 -120 -162q-31 -53 -62 -127zM169 114q12 -38 38 -38q44 0 163 119l2 -43q-67 -72 -79 -84q-40 -40 -74.5 -64t-62.5 -24q-35 0 -61 38q-22 32 -29 78l-75 -13l-11 61l86 15q14 100 85 218q62 104 139.5 182.5t114.5 78.5
q9 0 14.5 -10.5t5.5 -21.5q0 -6 -2 -10q0 -115 -77 -225q-63 -91 -185 -185v-11l91 16l11 -60z" />
    <glyph glyph-name="Scaron" unicode="&#x160;" horiz-adv-x="656" 
d="M81 124q56 -6 95 -6q103 0 211 29q117 32 117 67q0 39 -204 88q-101 24 -139 45q-44 25 -44 67q0 135 119 208q113 69 310 69q72 0 114.5 -13.5t42.5 -33.5q0 -76 -51 -105q-3 -2 -41 -18q-26 -11 -62 -31q-9 -5 -27 -17q-10 -7 -16 -7q-13 0 -13 12q0 14 74 68l-37 1
q-128 0 -228 -43q-88 -38 -88 -71q0 -17 25 -28q83 -24 161 -49q94 -30 146 -73t52 -85q0 -115 -142 -176q-122 -53 -303 -53q-83 0 -132 21t-49 47q0 13 21 51q14 25 25.5 37.5t37 21.5t63.5 9q-13 -20 -38 -32zM485 836q41 30 83 60q22 13 42 13q19 0 19 -11q0 -6 -17 -20
l-97 -79q-16 -13 -25.5 -17t-32.5 -4q-38 0 -38 110q0 10 3 17q1 2 4 6q34 0 37 -8q2 -11 5.5 -27t16.5 -40z" />
    <glyph glyph-name="scaron" unicode="&#x161;" horiz-adv-x="344" 
d="M3 146l9 1q39 0 75 -59q35 24 50.5 49t15.5 61q0 30 -13 80q-27 -29 -65 -65q-48 -44 -72 -67zM351 194l1 -43q-163 -172 -258 -172q-49 0 -93 38t-44 79q0 34 35 48v38q119 119 152 160q7 35 23 49.5t49 14.5q18 0 18 -16l-2 -18q0 -7 9.5 -46t9.5 -69q0 -61 -40 -117
t-95 -72q20 -5 31 -5q66 0 204 131zM268 490q41 30 83 60q22 13 42 13q19 0 19 -11q0 -6 -17 -20l-97 -79q-16 -13 -25.5 -17t-32.5 -4q-38 0 -38 110q0 10 3 17q1 2 4 6q34 0 37 -8q2 -11 5.5 -27t16.5 -40z" />
    <glyph glyph-name="Zcaron" unicode="&#x17d;" horiz-adv-x="654" 
d="M461 89q-109 -73 -186 -150q-72 -71 -111 -139q204 78 297 289zM636 220v-34l-76 -42q-14 -126 -152 -269q-70 -72 -156 -120q-70 -39 -102 -39q-19 0 -45.5 24.5t-26.5 46.5q0 34 40 88q48 65 127 128q93 74 224 140l3 17q0 21 -13 34t-34 13q-52 0 -163 -62
q-48 -28 -96 -55q-19 -10 -29 -10t-10 20q0 17 9.5 48t24.5 56q12 19 29 33q10 8 39 25q134 77 180 105q78 48 110 77q38 34 38 62q0 24 -33 24q-29 0 -91 -22q-74 -27 -160 -75q-103 -59 -199 -139l-1 37q0 72 16.5 121.5t54.5 84.5q44 41 146 91q68 33 122.5 49.5
t97.5 16.5q72 0 115 -40q40 -37 40 -99q0 -59 -57 -120q-61 -65 -174 -118q54 -7 86.5 -39.5t39.5 -86.5zM338 783q41 30 83 60q22 13 42 13q19 0 19 -11q0 -6 -17 -20l-97 -79q-16 -13 -25.5 -17t-32.5 -4q-38 0 -38 110q0 10 3 17q1 2 4 6q34 0 37 -8q2 -11 5.5 -27
t16.5 -40z" />
    <glyph glyph-name="zcaron" unicode="&#x17e;" horiz-adv-x="354" 
d="M361 196v-45q-41 -49 -89.5 -93t-97.5 -76q-8 -72 -76 -156q-46 -56 -99 -91q-46 -30 -69 -30q-13 0 -22.5 17.5t-9.5 43.5q0 52 51.5 109t153.5 124v8q0 32 -26 44q-31 12 -42 16q-18 8 -18 21q0 15 51 53q101 76 141 109q-36 -9 -133 -27q-16 -18 -32 -35t-50 -51v47
l36 38q-28 10 -28 30q0 31 40.5 70.5t70.5 39.5q19 0 19 -16q0 -7 -9 -24q36 4 64 10.5t57 13.5q38 0 38 -70q0 -26 -37 -55q-66 -46 -122 -89q48 -22 54 -84l80 60q53 41 104 88zM77 -86q-40 -27 -73 -59t-61 -76q77 21 134 135zM197 467q41 30 83 60q22 13 42 13
q19 0 19 -11q0 -6 -17 -20l-97 -79q-16 -13 -25.5 -17t-32.5 -4q-38 0 -38 110q0 10 3 17q1 2 4 6q34 0 37 -8q2 -11 5.5 -27t16.5 -40z" />
    <glyph glyph-name="brokenbar" unicode="&#xa6;" 
d="M295 328h-88v371h88v-371zM295 -170h-88v369h88v-369z" />
    <glyph glyph-name="Eth" unicode="&#xd0;" horiz-adv-x="752" 
d="M445 541q-4 -15 -65 -97q-30 -38 -60 -75q34 0 63.5 1t59.5 2q29 0 65 -3q-13 -43 -30.5 -62.5t-37.5 -19.5q-10 1 -32 2t-39 1q-20 0 -46.5 -1t-56.5 -4q-22 -26 -43 -55q-42 -59 -42 -93q0 -18 12.5 -28.5t41.5 -10.5q84 0 180 30q118 37 190 101q88 78 88 184
q0 54 -47 86q-62 42 -201 42zM270 480q-40 -4 -92 -18.5t-108 -29.5q-24 0 -24 32q0 19 8 46q4 13 9 27q18 64 133.5 108t259.5 44q129 0 205 -48q101 -64 101 -208q0 -178 -183 -316q-179 -135 -397 -135q-102 0 -102 67q0 66 102 230q-88 -13 -135 -25q9 33 22 50.5
t45 27.5q45 14 120 25q44 57 100 125q45 55 49 59q-45 0 -85 -9.5t-128 -43.5q6 0 21.5 1t19.5 1q16 0 31 -2.5t28 -7.5z" />
    <glyph glyph-name="eth" unicode="&#xf0;" horiz-adv-x="359" 
d="M174 369q-10 33 -14 49q-8 22 -15 45l-122 -45q-8 0 -8 8q0 5 7 21q1 4 2 9q12 17 105 46q-15 30 -29 61q-35 72 -35 75q0 8 9 8q38 0 60.5 -21t62.5 -102l63 23q16 6 41 15l15 5q7 -3 7 -9q0 -10 -7 -21q-2 -5 -3 -10q-9 -11 -94 -42q30 -59 43 -100q19 -60 19 -124
q0 -73 -49 -153q33 6 64 27.5t71 64.5v-49q-55 -52 -64 -60q-43 -35 -106 -35q-66 -71 -125 -71q-46 0 -77.5 37.5t-31.5 95.5q0 67 43 129q56 81 168 123zM195 275q-59 -26 -103 -68q-55 -52 -55 -103q0 -18 8.5 -30t28.5 -12q31 0 74 38q-2 4 -2 22q0 30 8 60q12 44 41 93
z" />
    <glyph glyph-name="Yacute" unicode="&#xdd;" horiz-adv-x="732" 
d="M592 760q20 26 29 39q22 32 31 53q6 12 17.5 17t24.5 5t21.5 -3.5t8.5 -7.5q0 -12 -19 -44q-19 -27 -43 -48q-31 -27 -53 -27q-7 0 -15 4t-2 12zM571 328q-97 -102 -190 -185q-75 -66 -134 -107q-51 -35 -66 -35q-25 0 -45 21t-20 46q0 31 36 98q42 79 120 173
q64 75 87 103q62 74 62 98q-3 4 -5 4q-25 0 -200 -104q-125 -74 -156 -74q-8 0 -8 16q0 31 17 79t39.5 68t57 42.5t84.5 48.5q71 37 127.5 55.5t104.5 18.5q73 0 73 -48q0 -33 -34 -90.5t-96 -137.5q-155 -197 -155 -227q0 -11 8 -11q62 0 238 185q165 173 190 173
q12 0 29 -26.5t17 -42.5q0 -13 -42 -73q-74 -105 -108 -157q-82 -125 -149 -255q65 47 126 72q46 19 69 19q18 0 18 -12q0 -15 -27 -40q-83 -68 -149 -125q-52 -46 -130 -127q-46 -48 -63 -48q-19 0 -31.5 13.5t-12.5 36.5q0 62 79 199t239 356z" />
    <glyph glyph-name="yacute" unicode="&#xfd;" horiz-adv-x="410" 
d="M198 114q-130 -124 -171 -124q-19 0 -42 42t-23 86q0 68 68 145q38 43 79 74q35 26 43 26q14 0 30 -15t16 -26q0 -18 -31 -55q-36 -44 -100 -96q-36 -42 -36 -68q0 -11 4 -11q9 0 46 24q46 30 106 80q77 65 155 145q31 -6 31 -46q0 -25 -53 -104q-88 -132 -134 -210
q124 95 232 216v-45q-104 -115 -201 -229q-59 -70 -117 -140q-41 -48 -47 -48q-7 0 -16.5 25t-9.5 49q0 19 40 94q49 93 131 211zM235 453q12 15 29 40q23 32 30 48t17.5 21.5t24.5 5.5q11 0 21 -4t10 -8q0 -12 -19 -44q-20 -28 -43 -48q-30 -26 -54 -26q-8 0 -15 3t-1 12z
" />
    <glyph glyph-name="Thorn" unicode="&#xde;" horiz-adv-x="695" 
d="M424 479q-53 -70 -103 -141q-53 -76 -96 -143q30 -3 58 -3q144 0 242 66q92 62 92 140q0 30 -35 47q-44 21 -158 34zM146 74l-11 -19q6 -8 6 -16q0 -16 -32 -65q-37 -56 -63 -56q-10 0 -16 4q-10 7 -10 26q0 35 28 98q32 71 102 176q80 120 196 257q-40 0 -117 -18
q-147 -35 -147 -37q0 18 32 75t52 74q18 18 66 33q64 20 142 20q45 0 93 -7q72 86 92 86q11 -3 11 -8q0 -11 -16 -38q-12 -21 -34 -52q77 -20 116 -63q47 -51 47 -139q0 -183 -150 -271q-116 -68 -293 -68q-48 0 -94 8z" />
    <glyph glyph-name="thorn" unicode="&#xfe;" horiz-adv-x="457" 
d="M180 84q34 37 50 58q50 63 50 88q0 8 -7 10q-22 0 -49 -20q-50 -37 -119 -136q32 3 42 3t33 -3zM113 260l-119 -121v45q72 76 102 113q52 65 123 168l46 86q58 89 111 89q14 0 23.5 -5.5t9.5 -16.5q0 -1 -71 -110q-79 -121 -182 -293q40 45 107 89q57 38 91 38
q15 0 24.5 -9t9.5 -34q0 -47 -39 -105t-109 -126q9 -4 24 -4q36 0 82 29q51 33 119 104v-47q-56 -60 -68 -71q-115 -109 -202 -109q-41 0 -74 24q-25 -5 -37 -5q-13 0 -33 5q-23 -55 -45 -110q-60 -129 -88 -129q-7 0 -12 8q-8 14 -8 48q0 94 70 195q30 41 59 82z" />
    <glyph glyph-name="minus" unicode="&#xad;" horiz-adv-x="439" 
d="M57 262h330v-90h-330v90z" />
    <glyph glyph-name="multiply" unicode="&#xd7;" horiz-adv-x="832" 
d="M239 61l-58 58l178 178l-183 182l58 59l183 -183l178 178l58 -58l-178 -178l181 -181l-58 -58l-181 181z" />
    <glyph glyph-name="onesuperior" unicode="&#xb9;" horiz-adv-x="373" 
d="M242 539q-24 -8 -49 -19q-19 -8 -24 -8q-6 0 -6 8q0 18 25 33q32 22 61 34t38 12q20 0 20 -38q0 -19 -17 -50q-8 -15 -24 -42l-68 -116q-19 -31 -32 -67.5t-13 -49.5l2 -16q0 -14 -10 -14q-8 0 -28 16q-24 19 -24 38q0 43 34 111q39 78 115 168z" />
    <glyph glyph-name="twosuperior" unicode="&#xb2;" horiz-adv-x="373" 
d="M66 283q82 9 145 20l58 10q9 0 9 -9q0 -19 -15 -42.5t-36.5 -32t-55 -13.5t-83.5 -5q-20 0 -31.5 3.5t-20.5 14.5q-4 5 -10.5 24t-6.5 28q0 58 137 136l130 68q25 18 25 42q0 13 -29 13q-32 0 -71 -12t-77 -37q24 0 38.5 -6.5t14.5 -13.5q0 -8 -12 -8h-5q-13 0 -29 -3.5
t-32 -6.5h-6q-17 0 -17 17q0 60 50 98t136 38q26 0 37 -2.5t18 -12.5q19 -27 19 -75q0 -37 -22 -62q-18 -20 -75 -54q-43 -26 -86 -51q-54 -33 -97 -66z" />
    <glyph glyph-name="threesuperior" unicode="&#xb3;" horiz-adv-x="373" 
d="M52 313q-12 -9 -12 -17q0 -22 42 -22q64 0 116.5 27t52.5 49q0 32 -93 32q-28 0 -42.5 -2t-24.5 -3q-13 0 -13 12q0 36 17.5 50t53.5 19q82 13 129 35t47 40q0 20 -51 20q-76 0 -127 -27l39 -21l-71 -4q-12 0 -20 8.5t-8 22.5q0 33 45.5 55.5t118.5 22.5q114 0 114 -77
q0 -47 -47.5 -72.5t-152.5 -38.5q133 0 133 -84q0 -60 -74 -103q-60 -36 -138 -36q-94 0 -94 49q0 23 23 48q15 17 29 17h8z" />
    <glyph glyph-name="onehalf" unicode="&#xbd;" horiz-adv-x="881" 
d="M235 541q-19 -6 -45 -17q-17 -7 -22 -7q-5 4 -5 7q0 7 6 15.5t16 15.5q32 21 57.5 31.5t33.5 10.5q18 0 18 -35q0 -17 -15 -46q-5 -10 -22 -39l-63 -106q-14 -25 -24 -49q-16 -40 -16 -58l1 -15q0 -12 -9 -12q-8 0 -26 14q-22 17 -22 35q0 37 32 101q37 73 105 154z
M589 49q76 8 133 18l54 10q8 0 8 -9q0 -16 -14 -38.5t-32.5 -30t-51.5 -12t-76 -4.5q-33 0 -48 16q-4 5 -9.5 22t-5.5 26q0 54 125 124l118 64q24 17 24 38q0 11 -26 11q-29 0 -65 -11t-71 -34q22 0 35.5 -5.5t13.5 -12.5t-12 -7h-4q-12 0 -26.5 -3.5t-29.5 -6.5h-6
q-15 0 -15 16q0 55 46 90t124 35q17 0 30 -1.5t21 -12.5q17 -23 17 -68q0 -34 -19 -55.5t-69.5 -51t-78.5 -46.5q-47 -29 -90 -61zM318 -10l-2 -35l-13 -23q-7 -11 -8 -13q-4 -6 -9 -10q-8 -10 -20 -13q-12 0 -29 12.5t-21 20t-4 20.5q0 28 14 59q5 13 14 35q6 14 14 31
q49 104 120 219q76 124 153 223q61 75 100 109q29 28 54 28q22 0 22 -22q0 -16 -19 -45l-18 -24l-42 -55q-61 -79 -142 -210q-92 -149 -135 -244z" />
    <glyph glyph-name="onequarter" unicode="&#xbc;" horiz-adv-x="881" 
d="M239 544q-19 -6 -45 -17q-17 -7 -22 -7q-5 4 -5 7q0 7 6 15.5t16 15.5q32 21 57.5 31.5t33.5 10.5q18 0 18 -35q0 -17 -15 -46q-5 -10 -22 -39l-63 -106q-14 -25 -24 -49q-16 -40 -16 -58l1 -15q0 -12 -9 -12q-8 0 -26 14q-22 17 -22 35q0 37 32 101q37 73 105 154z
M740 69q-6 -13 -9 -28t-3 -21q5 -7 5 -13q0 -10 -20.5 -24.5t-32.5 -14.5q-14 0 -14 34q0 26 6 58l-58 -3h-19q-11 0 -14 2q-2 1 -8 14q-14 26 -14 47q0 25 32 65q37 46 101 89q104 70 143 70q18 0 18 -16q0 -8 -8 -16q9 -13 9 -22q0 -15 -21 -50l-61 -101q18 0 37 -0.5
t19 -12.5q0 -15 -27 -42q-8 -8 -32 -11zM699 130q22 38 53.5 81t74.5 90q-57 -22 -111.5 -65.5t-101.5 -109.5q8 -4 25 -4t33.5 3t26.5 5zM318 -10l-2 -35l-13 -23q-7 -11 -8 -13q-4 -6 -9 -10q-8 -10 -20 -13q-12 0 -29 12.5t-21 20t-4 20.5q0 28 14 59q5 13 14 35
q6 14 14 31q49 104 120 219q76 124 153 223q61 75 100 109q29 28 54 28q22 0 22 -22q0 -16 -19 -45l-18 -24l-42 -55q-61 -79 -142 -210q-92 -149 -135 -244z" />
    <glyph glyph-name="threequarters" unicode="&#xbe;" horiz-adv-x="881" 
d="M51 333q-11 -8 -11 -15q0 -20 39 -20q58 0 106.5 24.5t48.5 45.5q0 29 -86 29q-24 0 -38 -2t-23 -3q-12 0 -12 11q0 33 16.5 46t49.5 18q76 12 118 31t42 37q0 19 -46 19q-67 0 -117 -25l36 -19l-65 -4q-10 0 -18 8t-8 20q0 30 42.5 50.5t108.5 20.5q104 0 104 -70
q0 -42 -44.5 -66t-138.5 -36q122 0 122 -77q0 -56 -68 -94q-56 -33 -126 -33q-86 0 -86 45q0 14 15 37t32 23zM727 63q-6 -13 -9 -28t-3 -21q5 -7 5 -13q0 -10 -20.5 -24.5t-32.5 -14.5q-14 0 -14 34q0 26 6 58l-58 -3h-19q-11 0 -14 2q-2 1 -8 14q-14 26 -14 47q0 25 32 65
q37 46 101 89q104 70 143 70q18 0 18 -16q0 -8 -8 -16q9 -13 9 -22q0 -15 -21 -50l-61 -101q18 0 37 -0.5t19 -12.5q0 -15 -27 -42q-8 -8 -32 -11zM686 124q22 38 53.5 81t74.5 90q-57 -22 -111.5 -65.5t-101.5 -109.5q8 -4 25 -4t33.5 3t26.5 5zM318 -10l-2 -35l-13 -23
q-7 -11 -8 -13q-4 -6 -9 -10q-8 -10 -20 -13q-12 0 -29 12.5t-21 20t-4 20.5q0 28 14 59q5 13 14 35q6 14 14 31q49 104 120 219q76 124 153 223q61 75 100 109q29 28 54 28q22 0 22 -22q0 -16 -19 -45l-18 -24l-42 -55q-61 -79 -142 -210q-92 -149 -135 -244z" />
  </font>
</defs>
</svg>
